Featured TV Shows


Homecoming S02E02

Posted By: Tavaz
1080p (FullHD) / WEBRip IMDb
Homecoming S02E02

Homecoming S02E02
WEBRip | MKV | 1920x1080 | English | H264 @ 9674 kbps | E-AC-3 @ 640 kbps | 30 min 34 s | 2.20 GiB
Subtitles: English
Genre: Drama


Heidi Bergman is a caseworker at Homecoming, a Geist Group facility helping soldiers transition to civilian life. Years later she has started a new life, living with her mother and working as a waitress, when a Department of Defense auditor questions why she left the Homecoming facility. Heidi quickly realizes that there's a whole other story behind the story she's been telling herself.

408f832b26525f12b06c4d9b7ad5df63.mkv (2.2 GB)



General
Unique ID : 212889955427674496791205225618765347320 (0xA0291D2F37DA8C8E4A7427260F4D79F8)
Complete name : ./408f832b26525f12b06c4d9b7ad5df63.mkv
Format : Matroska
Format version : Version 4 / Version 2
File size : 2.20 GiB
Duration : 30 min 34 s
Overall bit rate : 10.3 Mb/s
Encoded date : UTC 2020-05-21 23:04:33
Writing application : mkvmerge v44.0.0 ('Domino') 64-bit
Writing library : libebml v1.3.10 + libmatroska v1.5.2

Video
ID : 1
Format : AVC
Format/Info : Advanced Video Codec
Format profile : High@L4
Format settings : CABAC / 4 Ref Frames
Format settings, CABAC : Yes
Format settings, RefFrames : 4 frames
Codec ID : V_MPEG4/ISO/AVC
Duration : 30 min 34 s
Bit rate : 9 674 kb/s
Width : 1 920 pixels
Height : 1 080 pixels
Display aspect ratio : 16:9
Frame rate mode : Constant
Frame rate : 23.976 (24000/1001) FPS
Color space : YUV
Chroma subsampling : 4:2:0
Bit depth : 8 bits
Scan type : Progressive
Bits/(Pixel*Frame) : 0.195
Stream size : 2.07 GiB (94%)
Default : Yes
Forced : No
Color range : Limited
Color primaries : BT.709
Transfer characteristics : BT.709
Matrix coefficients : BT.709

Audio
ID : 2
Format : E-AC-3
Format/Info : Enhanced Audio Coding 3
Format settings, Endianness : Big
Codec ID : A_EAC3
Duration : 30 min 34 s
Bit rate mode : Constant
Bit rate : 640 kb/s
Channel(s) : 6 channels
Channel positions : Front: L C R, Side: L R, LFE
Sampling rate : 48.0 kHz
Frame rate : 187.500 FPS (256 SPF)
Compression mode : Lossy
Stream size : 140 MiB (6%)
Title : English
Language : English
Service kind : Complete Main
Default : No
Forced : No

Text #1
ID : 3
Format : UTF-8
Codec ID : S_TEXT/UTF8
Codec ID/Info : UTF-8 Plain Text
Duration : 29 min 7 s
Bit rate : 41 b/s
Count of elements : 376
Stream size : 8.82 KiB (0%)
Title : English
Language : English
Default : No
Forced : No

Text #2
ID : 4
Format : UTF-8
Codec ID : S_TEXT/UTF8
Codec ID/Info : UTF-8 Plain Text
Duration : 30 min 16 s
Bit rate : 47 b/s
Count of elements : 443
Stream size : 10.6 KiB (0%)
Title : English SDH
Language : English
Default : No
Forced : No

Menu
00:00:00.000 : en:Amazon Original
00:00:05.000 : en:Opening Credits
00:00:19.000 : en:Jackie wakes up
00:01:10.000 : en:Title Sequence
00:01:16.000 : en:New car
00:03:01.000 : en:Buying supplies
00:04:19.000 : en:Investigating the house
00:08:52.000 : en:All trails lead back to Geist
00:13:01.000 : en:Testing
00:14:52.000 : en:Audrey is stressed
00:15:48.000 : en:Talking about Geist products
00:16:53.000 : en:Audrey confronts Leonard
00:19:31.000 : en:Touring the facility
00:20:40.000 : en:Sneaking around
00:23:17.000 : en:Leonard gives his speech
00:26:38.000 : en:Who is Alex?
00:27:46.000 : en:End Credits





Homecoming S02E02


Homecoming S02E02


Homecoming S02E02


Homecoming S02E02


Homecoming S02E02

All episodes