Featured TV Shows


Homecoming S02E02

Posted By: Tavaz
Homecoming S02E02

Homecoming S02E02
MKV | 1280x720 | English | H265 @ 725 kbps | E-AC-3 @ 640 kbps | 30 min 34 s | 305 MiB
Subtitles: English
Genre: Drama


Heidi Bergman is a caseworker at Homecoming, a Geist Group facility helping soldiers transition to civilian life. Years later she has started a new life, living with her mother and working as a waitress, when a Department of Defense auditor questions why she left the Homecoming facility. Heidi quickly realizes that there's a whole other story behind the story she's been telling herself.

8240392850e777291d2d07a50495712c.mkv (304.8 MB)



General
Unique ID : 86267418307172609461206182268088955479 (0x40E6801B26675016C3453AE61E213257)
Complete name : ./8240392850e777291d2d07a50495712c.mkv
Format : Matroska
Format version : Version 4 / Version 2
File size : 305 MiB
Duration : 30 min 34 s
Overall bit rate : 1 394 kb/s
Writing application : Lavf58.30.100
Writing library : Lavf58.30.100
ErrorDetectionType : Per level 1

Video
ID : 1
Format : HEVC
Format/Info : High Efficiency Video Coding
Format profile : Main 10@L3.1@Main
Codec ID : V_MPEGH/ISO/HEVC
Duration : 30 min 34 s
Bit rate : 726 kb/s
Width : 1 280 pixels
Height : 720 pixels
Display aspect ratio : 16:9
Frame rate mode : Constant
Frame rate : 23.976 (24000/1001) FPS
Color space : YUV
Chroma subsampling : 4:2:0
Bit depth : 10 bits
Bits/(Pixel*Frame) : 0.033
Stream size : 159 MiB (52%)
Writing library : x265 3.1+11-de920e0a3183:[Windows][GCC 9.1.1][64 bit] 10bit
Encoding settings : cpuid=1111039 / frame-threads=4 / numa-pools=16 / wpp / no-pmode / no-pme / no-psnr / no-ssim / log-level=2 / input-csp=1 / input-res=1280x720 / interlace=0 / total-frames=0 / level-idc=0 / high-tier=1 / uhd-bd=0 / ref=1 / no-allow-non-conformance / no-repeat-headers / annexb / no-aud / no-hrd / info / hash=0 / no-temporal-layers / open-gop / min-keyint=23 / keyint=250 / gop-lookahead=0 / bframes=3 / b-adapt=0 / b-pyramid / bframe-bias=0 / rc-lookahead=5 / lookahead-slices=4 / scenecut=0 / radl=0 / no-splice / no-intra-refresh / ctu=32 / min-cu-size=16 / no-rect / no-amp / max-tu-size=32 / tu-inter-depth=1 / tu-intra-depth=1 / limit-tu=0 / rdoq-level=0 / dynamic-rd=0.00 / no-ssim-rd / no-signhide / no-tskip / nr-intra=0 / nr-inter=0 / no-constrained-intra / strong-intra-smoothing / max-merge=2 / limit-refs=0 / no-limit-modes / me=0 / subme=0 / merange=57 / temporal-mvp / no-hme / no-weightp / no-weightb / no-analyze-src-pics / deblock=0:0 / no-sao / no-sao-non-deblock / rd=2 / early-skip / rskip / fast-intra / no-tskip-fast / no-cu-lossless / no-b-intra / no-splitrd-skip / rdpenalty=0 / psy-rd=2.00 / psy-rdoq=0.00 / no-rd-refine / no-lossless / cbqpoffs=0 / crqpoffs=0 / rc=crf / crf=22.0 / qcomp=0.60 / qpstep=4 / stats-write=0 / stats-read=0 / ipratio=1.40 / pbratio=1.30 / aq-mode=1 / aq-strength=0.00 / cutree / zone-count=0 / no-strict-cbr / qg-size=32 / no-rc-grain / qpmax=69 / qpmin=0 / no-const-vbv / sar=1 / overscan=0 / videoformat=5 / range=0 / colorprim=2 / transfer=2 / colormatrix=2 / chromaloc=0 / display-window=0cll=0,0 / min-luma=0 / max-luma=1023 / log2-max-poc-lsb=8 / vui-timing-info / vui-hrd-info / slices=1 / no-opt-qp-pps / no-opt-ref-list-length-pps / no-multi-pass-opt-rps / scenecut-bias=0.05 / no-opt-cu-delta-qp / no-aq-motion / no-hdr / no-hdr-opt / no-dhdr10-opt / no-idr-recovery-sei / analysis-reuse-level=5 / scale-factor=0 / refine-intra=0 / refine-inter=0 / refine-mv=0 / refine-ctu-distortion=0 / no-limit-sao / ctu-info=0 / no-lowpass-dct / refine-analysis-type=0 / copy-pic=1 / max-ausize-factor=1.0 / no-dynamic-refine / no-single-sei / no-hevc-aq / no-svt / no-field / qp-adaptation-range=1.00
Default : Yes
Forced : No
Color range : Limited
Statistics Tags Issue : mkvmerge v44.0.0 ('Domino') 64-bit 2020-05-21 23:05:41 / Lavf58.30.100
FromStats_BitRate : 4820146
FromStats_Duration : 00:30:34.375000000
FromStats_FrameCount : 43981
FromStats_StreamSize : 1105243901

Audio
ID : 2
Format : E-AC-3
Format/Info : Enhanced Audio Coding 3
Format settings, Endianness : Big
Codec ID : A_EAC3
Duration : 30 min 34 s
Bit rate mode : Constant
Bit rate : 640 kb/s
Channel(s) : 6 channels
Channel positions : Front: L C R, Side: L R, LFE
Sampling rate : 48.0 kHz
Frame rate : 187.500 FPS (256 SPF)
Bit depth : 32 bits
Compression mode : Lossy
Stream size : 140 MiB (46%)
Title : English
Language : English
Service kind : Complete Main
Default : No
Forced : No
Statistics Tags Issue : mkvmerge v44.0.0 ('Domino') 64-bit 2020-05-21 23:05:41 / Lavf58.30.100
FromStats_BitRate : 640000
FromStats_Duration : 00:30:34.400000000
FromStats_FrameCount : 57325
FromStats_StreamSize : 146752000

Text
ID : 3
Format : ASS
Codec ID : S_TEXT/ASS
Codec ID/Info : Advanced Sub Station Alpha
Compression mode : Lossless
Title : English
Writing library : Lavc58.55.100 ssa
Language : English
Default : No
Forced : No
Statistics Tags Issue : mkvmerge v44.0.0 ('Domino') 64-bit 2020-05-21 23:05:41 / Lavf58.30.100
FromStats_BitRate : 41
FromStats_Duration : 00:30:20.319000000
FromStats_FrameCount : 376
FromStats_StreamSize : 9029

Menu
00:00:00.000 : :Amazon Original
00:00:05.000 : :Opening Credits
00:00:19.000 : :Jackie wakes up
00:01:10.000 : :Title Sequence
00:01:16.000 : :New car
00:03:01.000 : :Buying supplies
00:04:19.000 : :Investigating the house
00:08:52.000 : :All trails lead back to Geist
00:13:01.000 : :Testing
00:14:52.000 : :Audrey is stressed
00:15:48.000 : :Talking about Geist products
00:16:53.000 : :Audrey confronts Leonard
00:19:31.000 : :Touring the facility
00:20:40.000 : :Sneaking around
00:23:17.000 : :Leonard gives his speech
00:26:38.000 : :Who is Alex?
00:27:46.000 : :End Credits





Homecoming S02E02


Homecoming S02E02


Homecoming S02E02


Homecoming S02E02


Homecoming S02E02

All episodes