Featured TV Shows


Homecoming S02E01

Posted By: Tavaz
1080p (FullHD) / WEBRip IMDb
Homecoming S02E01

Homecoming S02E01
WEBRip | MKV | 1920x1080 | English | H264 @ 7019 kbps | E-AC-3 @ 640 kbps | 31 min 5 s | 1.66 GiB
Subtitles: English
Genre: Drama


Heidi Bergman is a caseworker at Homecoming, a Geist Group facility helping soldiers transition to civilian life. Years later she has started a new life, living with her mother and working as a waitress, when a Department of Defense auditor questions why she left the Homecoming facility. Heidi quickly realizes that there's a whole other story behind the story she's been telling herself.

1f597e94cf4052af43630a2b9d1693c1.mkv (1.7 GB)



General
Unique ID : 97651379637196934245938995523923813968 (0x4976F8BBC970D03F1980D414F39D2650)
Complete name : ./1f597e94cf4052af43630a2b9d1693c1.mkv
Format : Matroska
Format version : Version 4 / Version 2
File size : 1.66 GiB
Duration : 31 min 5 s
Overall bit rate : 7 662 kb/s
Encoded date : UTC 2020-05-21 23:03:48
Writing application : mkvmerge v44.0.0 ('Domino') 64-bit
Writing library : libebml v1.3.10 + libmatroska v1.5.2

Video
ID : 1
Format : AVC
Format/Info : Advanced Video Codec
Format profile : High@L4
Format settings : CABAC / 4 Ref Frames
Format settings, CABAC : Yes
Format settings, RefFrames : 4 frames
Codec ID : V_MPEG4/ISO/AVC
Duration : 31 min 5 s
Bit rate mode : Constant
Bit rate : 7 020 kb/s
Nominal bit rate : 10 000 kb/s
Width : 1 920 pixels
Height : 1 080 pixels
Display aspect ratio : 16:9
Frame rate mode : Constant
Frame rate : 23.976 (24000/1001) FPS
Color space : YUV
Chroma subsampling : 4:2:0
Bit depth : 8 bits
Scan type : Progressive
Bits/(Pixel*Frame) : 0.141
Stream size : 1.52 GiB (92%)
Default : Yes
Forced : No
Color range : Limited
Color primaries : BT.709
Transfer characteristics : BT.709
Matrix coefficients : BT.709

Audio
ID : 2
Format : E-AC-3
Format/Info : Enhanced Audio Coding 3
Format settings, Endianness : Big
Codec ID : A_EAC3
Duration : 31 min 5 s
Bit rate mode : Constant
Bit rate : 640 kb/s
Channel(s) : 6 channels
Channel positions : Front: L C R, Side: L R, LFE
Sampling rate : 48.0 kHz
Frame rate : 187.500 FPS (256 SPF)
Compression mode : Lossy
Stream size : 142 MiB (8%)
Title : English
Language : English
Service kind : Complete Main
Default : No
Forced : No

Text #1
ID : 3
Format : UTF-8
Codec ID : S_TEXT/UTF8
Codec ID/Info : UTF-8 Plain Text
Duration : 28 min 9 s
Bit rate : 51 b/s
Count of elements : 399
Stream size : 10.5 KiB (0%)
Title : English
Language : English
Default : No
Forced : No

Text #2
ID : 4
Format : UTF-8
Codec ID : S_TEXT/UTF8
Codec ID/Info : UTF-8 Plain Text
Duration : 28 min 12 s
Bit rate : 57 b/s
Count of elements : 450
Stream size : 11.9 KiB (0%)
Title : English SDH
Language : English
Default : No
Forced : No

Menu
00:00:00.000 : en:Amazon Original
00:00:05.000 : en:Previously On
00:01:29.000 : en:Opening Credits
00:01:45.000 : en:Waking up on a boat
00:04:18.000 : en:Title Sequence
00:04:24.000 : en:Lost in the woods
00:08:15.000 : en:Questions at the hospital
00:12:48.000 : en:Trying to figure out what happened
00:17:02.000 : en:Clues at the karaoke bar
00:20:02.000 : en:Looking through receipts
00:20:58.000 : en:Searching the hotel
00:27:41.000 : en:Farming
00:28:20.000 : en:End Credits





Homecoming S02E01


Homecoming S02E01


Homecoming S02E01


Homecoming S02E01


Homecoming S02E01

All episodes