Featured TV Shows


Fear the Walking Dead S05E11

Posted By: Tavaz
1080p (FullHD) / WEBRip IMDb
Fear the Walking Dead S05E11

Fear the Walking Dead S05E11
WEBRip | MKV | 1920x1080 | English | H264 @ 5000 kbps | AAC @ 125 kbps | 45 min 1 s | 1.61 GiB
Genre: Drama, Horror


What did the world look like as it was transforming into the horrifying apocalypse depicted in "The Walking Dead"? This spin-off set in Los Angeles, following new characters as they face the beginning of the end of the world, will answer that question.

0b2ce49862584ea6997624aa2d6a71c4.mkv (1.6 GB)



General
Unique ID : 174052771705104932220966237460221299591 (0x82F15830B23CFB22CCCBF647319A8B87)
Complete name : ./0b2ce49862584ea6997624aa2d6a71c4.mkv
Format : Matroska
Format version : Version 4 / Version 2
File size : 1.61 GiB
Duration : 45 min 1 s
Overall bit rate : 5 123 kb/s
Encoded date : UTC 2019-08-24 01:43:37
Writing application : mkvmerge v24.0.0 ('Beyond The Pale') 64-bit
Writing library : libebml v1.3.6 + libmatroska v1.4.9

Video
ID : 1
Format : AVC
Format/Info : Advanced Video Codec
Format profile : High@L4
Format settings : CABAC / 3 Ref Frames
Format settings, CABAC : Yes
Format settings, RefFrames : 3 frames
Codec ID : V_MPEG4/ISO/AVC
Duration : 45 min 1 s
Bit rate mode : Constant
Bit rate : 5 000 kb/s
Width : 1 920 pixels
Height : 1 080 pixels
Display aspect ratio : 16:9
Frame rate mode : Constant
Frame rate : 23.976 (24000/1001) FPS
Color space : YUV
Chroma subsampling : 4:2:0
Bit depth : 8 bits
Scan type : Progressive
Bits/(Pixel*Frame) : 0.101
Stream size : 1.57 GiB (98%)
Default : Yes
Forced : No

Audio
ID : 2
Format : AAC
Format/Info : Advanced Audio Codec
Format profile : LC
Codec ID : A_AAC-2
Duration : 45 min 1 s
Bit rate : 126 kb/s
Channel(s) : 2 channels
Channel positions : Front: L R
Sampling rate : 44.1 kHz
Frame rate : 43.066 FPS (1024 SPF)
Compression mode : Lossy
Delay relative to video : 3 ms
Stream size : 40.4 MiB (2%)
Default : Yes
Forced : No





Fear the Walking Dead S05E11


Fear the Walking Dead S05E11


Fear the Walking Dead S05E11


Fear the Walking Dead S05E11


Fear the Walking Dead S05E11

All episodes