Featured TV Shows


Fear the Walking Dead S05E10

Posted By: Tavaz
720p (HD) / WEBRip IMDb
Fear the Walking Dead S05E10

Fear the Walking Dead S05E10
WEBRip | MKV | 1280x720 | English | H264 @ 2499 kbps | AAC @ 93 kbps | 50 min 25 s | 935 MiB
Genre: Drama, Horror


What did the world look like as it was transforming into the horrifying apocalypse depicted in "The Walking Dead"? This spin-off set in Los Angeles, following new characters as they face the beginning of the end of the world, will answer that question.

c6a647d8674a4232b9e1182a666bdcb7.mkv (934.9 MB)



General
Unique ID : 13711631185329348718020501442853716229 (0xA50C39C9F65ED77AB34DD2F8FA5C105)
Complete name : ./c6a647d8674a4232b9e1182a666bdcb7.mkv
Format : Matroska
Format version : Version 4 / Version 2
File size : 935 MiB
Duration : 50 min 25 s
Overall bit rate : 2 592 kb/s
Encoded date : UTC 2019-08-17 01:34:00
Writing application : mkvmerge v29.0.0 ('Like It Or Not') 64-bit
Writing library : libebml v1.3.6 + libmatroska v1.4.9

Video
ID : 1
Format : AVC
Format/Info : Advanced Video Codec
Format profile : Main@L3.1
Format settings : CABAC / 3 Ref Frames
Format settings, CABAC : Yes
Format settings, RefFrames : 3 frames
Codec ID : V_MPEG4/ISO/AVC
Duration : 50 min 25 s
Bit rate mode : Constant
Bit rate : 2 500 kb/s
Width : 1 280 pixels
Height : 720 pixels
Display aspect ratio : 16:9
Frame rate mode : Constant
Frame rate : 23.976 (24000/1001) FPS
Color space : YUV
Chroma subsampling : 4:2:0
Bit depth : 8 bits
Scan type : Progressive
Bits/(Pixel*Frame) : 0.113
Stream size : 900 MiB (96%)
Default : Yes
Forced : No

Audio
ID : 2
Format : AAC
Format/Info : Advanced Audio Codec
Format profile : LC
Codec ID : A_AAC-2
Duration : 50 min 25 s
Bit rate : 93.6 kb/s
Channel(s) : 2 channels
Channel positions : Front: L R
Sampling rate : 44.1 kHz
Frame rate : 43.066 FPS (1024 SPF)
Compression mode : Lossy
Delay relative to video : 3 ms
Stream size : 33.8 MiB (4%)
Default : Yes
Forced : No





Fear the Walking Dead S05E10


Fear the Walking Dead S05E10


Fear the Walking Dead S05E10


Fear the Walking Dead S05E10


Fear the Walking Dead S05E10

All episodes