Featured TV Shows


Fear the Walking Dead S05E10

Posted By: Tavaz
720p (HD) / WEBRip IMDb
Fear the Walking Dead S05E10

Fear the Walking Dead S05E10
WEBRip | MKV | 960x540 | English | H264 @ 1400 kbps | AAC @ 93 kbps | 50 min 25 s | 538 MiB
Genre: Drama, Horror


What did the world look like as it was transforming into the horrifying apocalypse depicted in "The Walking Dead"? This spin-off set in Los Angeles, following new characters as they face the beginning of the end of the world, will answer that question.

d3cd15226f9c42569bcaeaf02583e887.mkv (538.2 MB)



General
Unique ID : 93525581178215307442633116570718040256 (0x465C5F2A12B60DC467A7D5846E97F0C0)
Complete name : ./d3cd15226f9c42569bcaeaf02583e887.mkv
Format : Matroska
Format version : Version 4 / Version 2
File size : 538 MiB
Duration : 50 min 25 s
Overall bit rate : 1 492 kb/s
Encoded date : UTC 2019-08-17 01:35:00
Writing application : mkvmerge v29.0.0 ('Like It Or Not') 64-bit
Writing library : libebml v1.3.6 + libmatroska v1.4.9

Video
ID : 1
Format : AVC
Format/Info : Advanced Video Codec
Format profile : Main@L3.1
Format settings : CABAC / 3 Ref Frames
Format settings, CABAC : Yes
Format settings, RefFrames : 3 frames
Codec ID : V_MPEG4/ISO/AVC
Duration : 50 min 25 s
Bit rate mode : Constant
Bit rate : 1 400 kb/s
Width : 960 pixels
Height : 540 pixels
Display aspect ratio : 16:9
Frame rate mode : Constant
Frame rate : 23.976 (24000/1001) FPS
Color space : YUV
Chroma subsampling : 4:2:0
Bit depth : 8 bits
Scan type : Progressive
Bits/(Pixel*Frame) : 0.113
Stream size : 504 MiB (94%)
Default : Yes
Forced : No

Audio
ID : 2
Format : AAC
Format/Info : Advanced Audio Codec
Format profile : LC
Codec ID : A_AAC-2
Duration : 50 min 25 s
Bit rate : 93.6 kb/s
Channel(s) : 2 channels
Channel positions : Front: L R
Sampling rate : 44.1 kHz
Frame rate : 43.066 FPS (1024 SPF)
Compression mode : Lossy
Delay relative to video : 3 ms
Stream size : 33.8 MiB (6%)
Default : Yes
Forced : No





Fear the Walking Dead S05E10


Fear the Walking Dead S05E10


Fear the Walking Dead S05E10


Fear the Walking Dead S05E10


Fear the Walking Dead S05E10

All episodes