Index
# A B C D E F G H I J K L M N O P Q R S T U V W Y Z
Tags
Language
Tags

Featured TV Shows


American Horror Stories S01E03

Posted By: Tavaz
720p (HD) / WEBRip IMDb
American Horror Stories S01E03

American Horror Stories S01E03
WEBRip | MKV | 1280x720 | English | H264 @ 1415 kbps | E-AC-3 @ 256 kbps | 40 min 59 s | 491 MiB
Subtitles: English
Genre: Drama, Mystery


An anthology series of stand alone episodes delving into horror myths, legends and lore.

af7dbf101353404688f05ce1dc1170cd.mkv (490.7 MB)



General
Unique ID : 218890488652790146895131691516406602156 (0xA4ACC6505DD681D8582C31076B3519AC)
Complete name : ./af7dbf101353404688f05ce1dc1170cd.mkv
Format : Matroska
Format version : Version 4 / Version 2
File size : 491 MiB
Duration : 40 min 59 s
Overall bit rate : 1 673 kb/s
Writing application : mkvmerge v53.0.0 ('Fool's Gold') 64-bit
Writing library : libebml v1.4.1 + libmatroska v1.6.2

Video
ID : 1
Format : AVC
Format/Info : Advanced Video Codec
Format profile : High@L3.1
Format settings : CABAC / 5 Ref Frames
Format settings, CABAC : Yes
Format settings, RefFrames : 5 frames
Codec ID : V_MPEG4/ISO/AVC
Duration : 40 min 59 s
Bit rate : 1 415 kb/s
Width : 1 280 pixels
Height : 720 pixels
Display aspect ratio : 16:9
Frame rate mode : Constant
Frame rate : 23.976 (24000/1001) FPS
Color space : YUV
Chroma subsampling : 4:2:0
Bit depth : 8 bits
Scan type : Progressive
Bits/(Pixel*Frame) : 0.064
Stream size : 415 MiB (85%)
Default : Yes
Forced : No

Audio
ID : 2
Format : E-AC-3
Format/Info : Enhanced Audio Coding 3
Format settings, Endianness : Big
Codec ID : A_EAC3
Duration : 40 min 59 s
Bit rate mode : Constant
Bit rate : 256 kb/s
Channel(s) : 6 channels
Channel positions : Front: L C R, Side: L R, LFE
Sampling rate : 48.0 kHz
Frame rate : 187.500 FPS (256 SPF)
Compression mode : Lossy
Stream size : 75.1 MiB (15%)
Language : English
Service kind : Complete Main
Default : Yes
Forced : No

Text #1
ID : 3
Format : UTF-8
Codec ID : S_TEXT/UTF8
Codec ID/Info : UTF-8 Plain Text
Duration : 39 min 36 s
Bit rate : 74 b/s
Count of elements : 726
Stream size : 21.5 KiB (0%)
Language : English
Default : No
Forced : No

Text #2
ID : 4
Format : UTF-8
Codec ID : S_TEXT/UTF8
Codec ID/Info : UTF-8 Plain Text
Duration : 39 min 36 s
Bit rate : 82 b/s
Count of elements : 803
Stream size : 23.9 KiB (0%)
Title : SDH
Language : English
Default : No
Forced : No

Menu
00:08:17.020 : en:Chapter 01
00:13:01.011 : en:Chapter 02
00:25:23.022 : en:Chapter 03
00:29:54.011 : en:Chapter 04
00:39:49.007 : en:Chapter 05
00:39:55.006 : en:Credits





American Horror Stories S01E03


American Horror Stories S01E03


American Horror Stories S01E03


American Horror Stories S01E03


American Horror Stories S01E03

All episodes