Tags
Language
Tags
July 2024
Su Mo Tu We Th Fr Sa
30 1 2 3 4 5 6
7 8 9 10 11 12 13
14 15 16 17 18 19 20
21 22 23 24 25 26 27
28 29 30 31 1 2 3

Tasuketsu Fate of the Majority S01E02 Good Intentions

Posted By: Otaku
Tasuketsu  Fate of the Majority  S01E02 Good Intentions

Tasuketsu Fate of the Majority S01E02 Good Intentions
WEB-DL | MKV | 1920x1080 | 日本語 | H264 @ 4603 kbps | E-AC-3 @ 128.0 kbps | 22 min 51 s | 789 MiB
Subtitles: English, 中文



Tasuketsu.-Fate.of.the.Majority-.S01E02.Good.Intentions.1080p.NF.WEB-DL.JPN.DDP2.0.H.264.MSubs-ToonsHub.mkv (789.5 MB)



General
Unique ID : 199588114488862753919226438568277162053 (0x962745CAAC314F946ECEA9963437B845)
Complete name : ./Tasuketsu.-Fate.of.the.Majority-.S01E02.Good.Intentions.1080p.NF.WEB-DL.JPN.DDP2.0.H.264.MSubs-ToonsHub.mkv
Format : Matroska
Format version : Version 4
File size : 789 MiB
Duration : 22 min 51 s
Overall bit rate mode : Variable
Overall bit rate : 4 827 kb/s
Writing application : Lavf58.29.100
Writing library : Lavf58.29.100
ErrorDetectionType : Per level 1

Video
ID : 1
Format : AVC
Format/Info : Advanced Video Codec
Format profile : Main@L4
Format settings : CABAC / 3 Ref Frames
Format settings, CABAC : Yes
Format settings, Reference frames : 3 frames
Codec ID : V_MPEG4/ISO/AVC
Duration : 22 min 51 s
Bit rate mode : Variable
Bit rate : 4 603 kb/s
Nominal bit rate : 5 000 kb/s
Maximum bit rate : 7 500 kb/s
Width : 1 920 pixels
Height : 1 080 pixels
Display aspect ratio : 16:9
Frame rate mode : Constant
Frame rate : 23.976 (24000/1001) FPS
Color space : YUV
Chroma subsampling : 4:2:0
Bit depth : 8 bits
Scan type : Progressive
Bits/(Pixel*Frame) : 0.093
Stream size : 753 MiB (95%)
Title : by ToonsHub
Writing library : x264 core 148 r2727 7d026e8
Encoding settings : cabac=1 / ref=3 / deblock=1:0:0 / analyse=0x1:0x111 / me=umh / subme=10 / psy=1 / psy_rd=1.00:0.00 / mixed_ref=1 / me_range=24 / chroma_me=1 / trellis=2 / 8x8dct=0 / cqm=0 / deadzone=21,11 / fast_pskip=1 / chroma_qp_offset=-2 / threads=6 / lookahead_threads=1 / sliced_threads=0 / nr=0 / decimate=1 / interlaced=0 / bluray_compat=0 / stitchable=1 / constrained_intra=0 / bframes=2 / b_pyramid=0 / b_adapt=2 / b_bias=0 / direct=3 / weightb=1 / open_gop=0 / weightp=2 / keyint=240 / keyint_min=121 / scenecut=0 / intra_refresh=0 / rc_lookahead=48 / rc=2pass / mbtree=1 / bitrate=5000 / ratetol=1.0 / qcomp=0.50 / qpmin=6 / qpmax=51 / qpstep=4 / cplxblur=20.0 / qblur=0.5 / vbv_maxrate=7500 / vbv_bufsize=10000 / nal_hrd=vbr / filler=0 / ip_ratio=1.40 / aq=1:1.00
Default : Yes
Forced : No

Audio
ID : 2
Format : E-AC-3
Format/Info : Enhanced AC-3
Commercial name : Dolby Digital Plus
Codec ID : A_EAC3
Duration : 22 min 51 s
Bit rate mode : Constant
Bit rate : 128 kb/s
Channel(s) : 2 channels
Channel layout : L R
Sampling rate : 48.0 kHz
Frame rate : 31.250 FPS (1536 SPF)
Bit depth : 32 bits
Compression mode : Lossy
Stream size : 20.9 MiB (3%)
Title : [ToonsHub] Japanese
Language : Japanese
Service kind : Complete Main
Default : Yes
Forced : No

Text #1
ID : 3
Format : UTF-8
Codec ID : S_TEXT/UTF8
Codec ID/Info : UTF-8 Plain Text
Title : [ToonsHub] English
Writing library : Lavc58.54.100 srt
Language : English
Default : No
Forced : No

Text #2
ID : 4
Format : UTF-8
Codec ID : S_TEXT/UTF8
Codec ID/Info : UTF-8 Plain Text
Title : [ToonsHub] Malay
Writing library : Lavc58.54.100 srt
Language : Malay
Default : No
Forced : No

Text #3
ID : 5
Format : UTF-8
Codec ID : S_TEXT/UTF8
Codec ID/Info : UTF-8 Plain Text
Title : [ToonsHub] Chinese (Traditional)
Writing library : Lavc58.54.100 srt
Language : Chinese
Default : No
Forced : No





Tasuketsu  Fate of the Majority  S01E02 Good Intentions


Tasuketsu  Fate of the Majority  S01E02 Good Intentions


Tasuketsu  Fate of the Majority  S01E02 Good Intentions


Tasuketsu  Fate of the Majority  S01E02 Good Intentions