Tags
Language
Tags
December 2022
Su Mo Tu We Th Fr Sa
27 28 29 30 1 2 3
4 5 6 7 8 9 10
11 12 13 14 15 16 17
18 19 20 21 22 23 24
25 26 27 28 29 30 31

Sword Art Online (2012), (2014)

Posted By: Lebedev30
Sword Art Online (2012), (2014)

Sword Art Online (2012), (2014)
BDRip | MKV | 1920x1080 | H264@~10000 Kbps | 25,24x ~ 24mn | 25,24x ~1.7 Gb
Japanese FLAC@680 Kbps | 2 channels | Subtitles: None
Genre: adventure, angst, fantasy, high fantasy, isekai, love polygon, romance, science fiction, seinen, swordplay, thriller, violence, virtual world


Description:
* Based on Kawahara Reki's light novel series Sword Art Online.

Kazuto "Kirito" Kirigaya enters a virtual-reality, massively multiplayer online role playing game called Sword Art Online. There is no escape from this world unless the player clears the game; however getting a "game over" results in the death of the player.








01. The World of Swords
02. Beater
03. The Red-Nosed Reindeer
04. The Black Swordsman
05. A Crime Within the Walls
06. Illusionary Avenger
07. The Temperature of the Heart
08. The Sword Dance of White and Black
09. The Blue-Eyed Demon
10. Crimson Killing Intent
11. The Girl of the Morning Dew
12. Yui`s Heart
13. Edge of Hell`s Abyss
14. The End of the World
15. Return
16. Land of the Fairies
17. Captive Queen
18. To the World Tree
19. The Lugru Corridor
20. General of the Blazing Flame
21. The Truth of Alfheim
22. Grand Quest
23. Bonds
24. Gilded Hero
25. The World Seed
01. The World of Guns
02. Cold-Hearted Sniper
03. Memories of Fresh Blood
04. GGO
05. Guns and Swords
06. Showdown in the Wilderness
07. Crimson Memories
08. Bullet of Bullets
09. Death Gun
10. Death Chaser
11. What It Means To Be Strong
12. Bullet of a Phantom
13. Phantom Bullet
14. One Little Step
15. The Queen of the Lake
16. The King of the Giants
17. Excaliber
18. Forest House
19. Zekken
20. Sleeping Knights
21. Swordman`s Memorial
22. Journey`s End
23. Beginning of a Dream
24. Mother`s Rosario


General
Format : Matroska
Format version : Version 4 / Version 2
File size : 1.77 GiB
Duration : 23 min 42 s
Overall bit rate mode : Variable
Overall bit rate : 10.7 Mb/s
Encoded date : UTC 2022-06-20 01:26:33
Writing application : mkvmerge v32.0.0 ('Astral Progressions') 64-bit
Writing library : libebml v1.3.7 + libmatroska v1.5.0

Video
ID : 2
Format : AVC
Format/Info : Advanced Video Codec
Format profile : High@L5.1
Format settings : CABAC / 16 Ref Frames
Format settings, CABAC : Yes
Format settings, RefFrames : 16 frames
Codec ID : V_MPEG4/ISO/AVC
Duration : 23 min 42 s
Bit rate : 10 000 kb/s
Width : 1 920 pixels
Height : 1 080 pixels
Display aspect ratio : 16:9
Frame rate mode : Constant
Frame rate : 23.976 (24000/1001) FPS
Color space : YUV
Chroma subsampling : 4:2:0
Bit depth : 8 bits
Scan type : Progressive
Bits/(Pixel*Frame) : 0.201
Stream size : 1.66 GiB (94%)
Writing library : x264 core 157 r2969 d4099dd
Encoding settings : cabac=1 / ref=16 / deblock=1:0:0 / analyse=0x3:0x133 / me=tesa / subme=11 / psy=1 / psy_rd=1.00:0.00 / mixed_ref=1 / me_range=24 / chroma_me=1 / trellis=2 / 8x8dct=1 / cqm=0 / deadzone=21,11 / fast_pskip=0 / chroma_qp_offset=-2 / threads=12 / lookahead_threads=3 / sliced_threads=0 / nr=0 / decimate=1 / interlaced=0 / bluray_compat=0 / constrained_intra=0 / bframes=16 / b_pyramid=2 / b_adapt=2 / b_bias=0 / direct=3 / weightb=1 / open_gop=0 / weightp=2 / keyint=240 / keyint_min=23 / scenecut=40 / intra_refresh=0 / rc_lookahead=60 / rc=2pass / mbtree=1 / bitrate=10000 / ratetol=1.0 / qcomp=0.60 / qpmin=0 / qpmax=69 / qpstep=4 / cplxblur=20.0 / qblur=0.5 / ip_ratio=1.40 / aq=1:1.00
Default : Yes
Forced : No

Audio
ID : 1
Format : FLAC
Format/Info : Free Lossless Audio Codec
Codec ID : A_FLAC
Duration : 23 min 42 s
Bit rate mode : Variable
Bit rate : 680 kb/s
Channel(s) : 2 channels
Sampling rate : 48.0 kHz
Frame rate : 11.719 FPS (4096 SPF)
Bit depth : 16 bits
Stream size : 115 MiB (6%)
Writing library : libFLAC 1.2.1 (UTC 2007-09-17)
Default : Yes
Forced : No

Menu
00:00:00.000 : en:Prologue
00:02:26.021 : en:Part A
00:11:02.996 : en:Part B
00:21:46.013 : en:ED
00:23:15.978 : en:Part C
00:23:34.997 : en:Preview


Screenshots

Sword Art Online (2012), (2014)

Sword Art Online (2012), (2014)

Sword Art Online (2012), (2014)


My publications | Rss Channel