Tags
Language
Tags
December 2022
Su Mo Tu We Th Fr Sa
27 28 29 30 1 2 3
4 5 6 7 8 9 10
11 12 13 14 15 16 17
18 19 20 21 22 23 24
25 26 27 28 29 30 31

Kemeko Deluxe! (2008)

Posted By: Lebedev30
Kemeko Deluxe! (2008)

Kemeko Deluxe! (2008)
BDRip | MKV | 1920x1078 | H264@~10000 Kbps | 12x ~ 24mn | 12x ~1.8 Gb
Japanese FLAC@760 Kbps | 2 channels | Subtitles: None
Genre: action, comedy, ecchi, manga, power suit, science fiction, shounen, sudden girlfriend appearance -


Description:
* Based on a manga by Iwasaki Masakazu, serialised in Dengeki Comic Gao!.

The high school student Kobayashi Sanpeita dreams he is engaged to a beautiful girl. Then one morning, a strange homely girl suddenly breaks through a wall in his bedroom, fighting spider-like battle droids, to tell him that she is his bride and that her name is Kemeko. In order to escape, Sanpeita flees his home and runs to school, but Kemeko follows him. And things only get stranger when Sanpeita is targeted by something that looks like a rice cooker on the school's rooftop. As Sanpeita and his childhood friend Makihara Izumi are being attacked, strange little Kemeko intervenes to save them both. But just who is Kemeko? Someone who claims to be Sanpeita's new steel bride!?

Sanpeita is surprised to learn that Kemeko is actually a girl-style powered-combat-suit and that the pilot is a cute girl named Mishima Mei. She may be a heavily armed and violent girl, but still quite cute, nonetheless.






01. Iron Bride
02. The People of the Kobayashi Family
03. Kemeko goes to school?
04. If she changed into a swimsuit
05. A Warrior`s Respite
06. A Woman from Mishima
07. Izumi-chan in a Pinch!
08. Black Girl
09. Battle Royale?
10. Fireworks
11. Mishima
12. Kiriko vs Kemeko


General
Format : Matroska
Format version : Version 4 / Version 2
File size : 1.85 GiB
Duration : 24 min 36 s
Overall bit rate mode : Variable
Overall bit rate : 10.8 Mb/s
Encoded date : UTC 2022-05-28 11:23:59
Writing application : mkvmerge v32.0.0 ('Astral Progressions') 64-bit
Writing library : libebml v1.3.7 + libmatroska v1.5.0

Video
ID : 2
Format : AVC
Format/Info : Advanced Video Codec
Format profile : High@L5.1
Format settings : CABAC / 16 Ref Frames
Format settings, CABAC : Yes
Format settings, RefFrames : 16 frames
Codec ID : V_MPEG4/ISO/AVC
Duration : 24 min 36 s
Bit rate : 10 000 kb/s
Width : 1 920 pixels
Height : 1 078 pixels
Display aspect ratio : 16:9
Frame rate mode : Constant
Frame rate : 23.976 (24000/1001) FPS
Color space : YUV
Chroma subsampling : 4:2:0
Bit depth : 8 bits
Scan type : Progressive
Bits/(Pixel*Frame) : 0.202
Stream size : 1.72 GiB (93%)
Writing library : x264 core 157 r2969 d4099dd
Encoding settings : cabac=1 / ref=16 / deblock=1:0:0 / analyse=0x3:0x133 / me=tesa / subme=11 / psy=1 / psy_rd=1.00:0.00 / mixed_ref=1 / me_range=24 / chroma_me=1 / trellis=2 / 8x8dct=1 / cqm=0 / deadzone=21,11 / fast_pskip=0 / chroma_qp_offset=-2 / threads=12 / lookahead_threads=3 / sliced_threads=0 / nr=0 / decimate=1 / interlaced=0 / bluray_compat=0 / constrained_intra=0 / bframes=16 / b_pyramid=2 / b_adapt=2 / b_bias=0 / direct=3 / weightb=1 / open_gop=0 / weightp=2 / keyint=240 / keyint_min=23 / scenecut=40 / intra_refresh=0 / rc_lookahead=60 / rc=2pass / mbtree=1 / bitrate=10000 / ratetol=1.0 / qcomp=0.60 / qpmin=0 / qpmax=69 / qpstep=4 / cplxblur=20.0 / qblur=0.5 / ip_ratio=1.40 / aq=1:1.00
Default : Yes
Forced : No

Audio
ID : 1
Format : FLAC
Format/Info : Free Lossless Audio Codec
Codec ID : A_FLAC
Duration : 24 min 35 s
Bit rate mode : Variable
Bit rate : 760 kb/s
Channel(s) : 2 channels
Sampling rate : 48.0 kHz
Frame rate : 11.719 FPS (4096 SPF)
Bit depth : 16 bits
Stream size : 134 MiB (7%)
Writing library : libFLAC 1.2.1 (UTC 2007-09-17)
Default : Yes
Forced : No


Screenshots

Kemeko Deluxe! (2008)

Kemeko Deluxe! (2008)

Kemeko Deluxe! (2008)


My publications | Rss Channel