Tags
Language
Tags
December 2022
Su Mo Tu We Th Fr Sa
27 28 29 30 1 2 3
4 5 6 7 8 9 10
11 12 13 14 15 16 17
18 19 20 21 22 23 24
25 26 27 28 29 30 31

Project A-ko (1986)

Posted By: Lebedev30
Project A-ko (1986)

Project A-ko (1986)
BDRip | MKV | 1920x1080 | H264@~6500 Kbps | 1x ~ 83mn | 1x ~4.3 Gb
Japanese DTS@1024 Kbps | 2 channels | Subtitles: Russian
Genre: action, comedy, ecchi, high school, mecha, pantsu, parody, school life, science fiction, super power, transforming craft


Description:
Magami Eiko (A-ko) is a red-haired teenage girl who just happens to be stronger and faster than anyone else alive. However, A-ko considers herself to be perfectly normal, and worries mostly about getting to school on time. Her best friend is Kotobuki Shiiko (C-ko), a bubbly, carefree, optimistic blonde. The two girls transfer to Graviton High School and catch the attention of Daitokuji Biko (B-ko), a brilliant but spoiled-rotten (and possibly psychotic) classmate with a knack for building mecha in no time flat.

B-ko develops an unexpected crush on the innocent C-ko and is determined to get A-ko out of the picture at any cost. Her determination goes from being merely obsessive to homicidal when she realizes that she and A-ko were rivals back in kindergarten. B-ko creates a series of killer mecha to defeat A-ko before the morning bell rings. All of them are destroyed effortlessly by A-ko. In a final attempt at victory, B-ko makes the fight more personal by donning her infamous Akagiyama-23 battlesuit and challenging A-ko to a duel, devastating the school and much of Graviton City in the process.

Meanwhile, Earth is being threatened by a massive spaceship piloted by a race of female aliens from the Lepton Kingdom of Alpha-Cygni, who have come to Earth to retrieve their long-lost princess. Oddly enough, the princess turns out to be none other than C-ko; she is kidnapped by an alien operative known as "D" in the middle of A-ko and B-ko's fight and taken aboard the spaceship.

A-ko and B-ko agree to put aside their differences long enough to rescue C-ko, and using the flight capabilities of the Akagiyama-23, they storm the ship.




01. Complete Movie


General
Format : Matroska
Format version : Version 4 / Version 2
File size : 4.37 GiB
Duration : 1 h 23 min
Overall bit rate : 7 532 kb/s
Encoded date : UTC 2022-02-20 13:47:16
Writing application : mkvmerge v32.0.0 ('Astral Progressions') 64-bit
Writing library : libebml v1.3.7 + libmatroska v1.5.0
Attachments : arialbi.ttf / comicbd.ttf / core-sans-g-35-light.ttf / ExcentraPro-SemiBold.ttf / impact_0.ttf / antiqua-bold_[allfont.ru].ttf / arialbd.ttf / comicz.ttf / courbd.ttf / GOTHICB.TTF / impact.ttf / lucon.TTF / tahomabd.ttf

Video
ID : 2
Format : AVC
Format/Info : Advanced Video Codec
Format profile : High@L5.1
Format settings : CABAC / 16 Ref Frames
Format settings, CABAC : Yes
Format settings, RefFrames : 16 frames
Codec ID : V_MPEG4/ISO/AVC
Duration : 1 h 23 min
Bit rate : 6 500 kb/s
Width : 1 920 pixels
Height : 1 080 pixels
Display aspect ratio : 16:9
Frame rate mode : Constant
Frame rate : 23.976 (24000/1001) FPS
Color space : YUV
Chroma subsampling : 4:2:0
Bit depth : 8 bits
Scan type : Progressive
Bits/(Pixel*Frame) : 0.131
Stream size : 3.77 GiB (86%)
Writing library : x264 core 157 r2969 d4099dd
Encoding settings : cabac=1 / ref=16 / deblock=1:0:0 / analyse=0x3:0x133 / me=tesa / subme=11 / psy=1 / psy_rd=1.00:0.00 / mixed_ref=1 / me_range=24 / chroma_me=1 / trellis=2 / 8x8dct=1 / cqm=0 / deadzone=21,11 / fast_pskip=0 / chroma_qp_offset=-2 / threads=12 / lookahead_threads=3 / sliced_threads=0 / nr=0 / decimate=1 / interlaced=0 / bluray_compat=0 / constrained_intra=0 / bframes=16 / b_pyramid=2 / b_adapt=2 / b_bias=0 / direct=3 / weightb=1 / open_gop=0 / weightp=2 / keyint=240 / keyint_min=23 / scenecut=40 / intra_refresh=0 / rc_lookahead=60 / rc=2pass / mbtree=1 / bitrate=6500 / ratetol=1.0 / qcomp=0.60 / qpmin=0 / qpmax=69 / qpstep=4 / cplxblur=20.0 / qblur=0.5 / ip_ratio=1.40 / aq=1:1.00
Default : Yes
Forced : No

Audio
ID : 1
Format : DTS
Format/Info : Digital Theater Systems
Format profile : MA / Core
Codec ID : A_DTS
Duration : 1 h 23 min
Bit rate mode : Variable / Constant
Bit rate : 1 024 kb/s / 255 kb/s
Channel(s) : 2 channels
Channel positions : Front: L R
Sampling rate : 48.0 kHz
Frame rate : 93.750 FPS (512 SPF)
Bit depth : 24 bits
Compression mode : Lossless / Lossy
Stream size : 606 MiB (14%)
Default : Yes
Forced : No

Text #1
ID : 3
Format : ASS
Codec ID : S_TEXT/ASS
Codec ID/Info : Advanced Sub Station Alpha
Duration : 1 h 22 min
Bit rate : 18 b/s
Count of elements : 141
Compression mode : Lossless
Stream size : 11.2 KiB (0%)
Title : Надписи
Language : Russian
Default : Yes
Forced : No

Text #2
ID : 4
Format : ASS
Codec ID : S_TEXT/ASS
Codec ID/Info : Advanced Sub Station Alpha
Duration : 1 h 22 min
Bit rate : 107 b/s
Count of elements : 874
Compression mode : Lossless
Stream size : 64.9 KiB (0%)
Title : Полные
Language : Russian
Default : No
Forced : No

Menu
00:00:00.000 : en:Chapter 01
00:01:05.732 : en:Chapter 02
00:06:23.007 : en:Chapter 03
00:12:37.298 : en:Chapter 04
00:19:35.591 : en:Chapter 05
00:27:17.636 : en:Chapter 06
00:30:32.664 : en:Chapter 07
00:35:30.962 : en:Chapter 08
00:39:11.974 : en:Chapter 09
00:43:29.690 : en:Chapter 10
00:52:57.174 : en:Chapter 11
00:55:30.243 : en:Chapter 12
00:57:31.948 : en:Chapter 13
01:06:13.052 : en:Chapter 14
01:10:02.823 : en:Chapter 15
01:14:50.360 : en:Chapter 16
01:18:40.799 : en:Chapter 17
01:19:32.559 : en:Chapter 18
01:23:02.352 : en:Chapter 19
01:27:11.559 : en:Chapter 20


Screenshots

Project A-ko (1986)

Project A-ko (1986)

Project A-ko (1986)


My publications | Rss Channel