Tags
Language
Tags

Piano no Mori (2019) (4-12)

Posted By: Lebedev30
Piano no Mori (2019) (4-12)

Piano no Mori (2019) (4-12)
WEBRip | MKV | 1920x1080 | H264@6490 Kbps | 9x ~ 25mn | 9x ~700 Mb-1.1 Gb
日本語 E-AC-3@128 Kbps | 2 channels | Subtitles: العربية, English, Español, Português, Italiano, Deutsch, Français, 中文, 日本語, 한국어
Genre: Drama







04. Promise
05. Deliberations Dance
06. Requiem
07. For Your No. 1
08. The Truth About Wei Pang
09. For Your Living Evidence
10. In the Country Where Chopin Was Born
11. Hero
12. The Best Pianist in the World


General
Format : Matroska
Format version : Version 4 / Version 2
File size : 1.17 GiB
Duration : 25 min 53 s
Overall bit rate mode : Variable
Overall bit rate : 6 460 kb/s
Encoded date : UTC 2019-08-24 09:40:30
Writing application : mkvmerge v34.0.0 ('Sight and Seen') 64-bit
Writing library : libebml v1.3.7 + libmatroska v1.5.0

Video
ID : 1
Format : AVC
Format/Info : Advanced Video Codec
Format profile : Main@L4
Format settings : CABAC / 3 Ref Frames
Format settings, CABAC : Yes
Format settings, RefFrames : 3 frames
Codec ID : V_MPEG4/ISO/AVC
Duration : 25 min 53 s
Bit rate mode : Variable
Bit rate : 6 490 kb/s
Maximum bit rate : 9 735 kb/s
Width : 1 920 pixels
Height : 1 080 pixels
Display aspect ratio : 16:9
Frame rate mode : Constant
Frame rate : 23.976 (24000/1001) FPS
Color space : YUV
Chroma subsampling : 4:2:0
Bit depth : 8 bits
Scan type : Progressive
Bits/(Pixel*Frame) : 0.131
Stream size : 1.14 GiB (98%)
Writing library : x264 core 148 r2715 7e75228
Encoding settings : cabac=1 / ref=3 / deblock=1:0:0 / analyse=0x1:0x111 / me=umh / subme=10 / psy=1 / psy_rd=1.00:0.00 / mixed_ref=1 / me_range=24 / chroma_me=1 / trellis=2 / 8x8dct=0 / cqm=0 / deadzone=21,11 / fast_pskip=1 / chroma_qp_offset=-2 / threads=8 / lookahead_threads=1 / sliced_threads=0 / nr=0 / decimate=1 / interlaced=0 / bluray_compat=0 / stitchable=1 / constrained_intra=0 / bframes=2 / b_pyramid=0 / b_adapt=2 / b_bias=0 / direct=3 / weightb=1 / open_gop=0 / weightp=2 / keyint=48 / keyint_min=25 / scenecut=0 / intra_refresh=0 / rc_lookahead=48 / rc=2pass / mbtree=1 / bitrate=6490 / ratetol=1.0 / qcomp=0.50 / qpmin=6 / qpmax=51 / qpstep=4 / cplxblur=20.0 / qblur=0.5 / vbv_maxrate=9735 / vbv_bufsize=12980 / nal_hrd=vbr / filler=0 / ip_ratio=1.40 / aq=1:1.00
Language : Japanese
Default : Yes
Forced : No

Audio
ID : 2
Format : E-AC-3
Format/Info : Enhanced Audio Coding 3
Codec ID : A_EAC3
Duration : 25 min 53 s
Bit rate mode : Constant
Bit rate : 128 kb/s
Channel(s) : 2 channels
Channel positions : Front: L R
Sampling rate : 48.0 kHz
Frame rate : 187.500 FPS (256 SPF)
Compression mode : Lossy
Stream size : 23.7 MiB (2%)
Language : Japanese
Service kind : Complete Main
Default : Yes
Forced : No

Text #1
ID : 3
Format : ASS
Codec ID : S_TEXT/ASS
Codec ID/Info : Advanced Sub Station Alpha
Duration : 24 min 49 s
Bit rate : 87 b/s
Count of elements : 271
Compression mode : Lossless
Stream size : 15.9 KiB (0%)
Language : English
Default : Yes
Forced : No

Text #2
ID : 4
Format : ASS
Codec ID : S_TEXT/ASS
Codec ID/Info : Advanced Sub Station Alpha
Duration : 24 min 49 s
Bit rate : 113 b/s
Count of elements : 278
Compression mode : Lossless
Stream size : 20.6 KiB (0%)
Language : Arabic
Default : No
Forced : No

Text #3
ID : 5
Format : ASS
Codec ID : S_TEXT/ASS
Codec ID/Info : Advanced Sub Station Alpha
Duration : 24 min 49 s
Bit rate : 89 b/s
Count of elements : 278
Compression mode : Lossless
Stream size : 16.3 KiB (0%)
Language : Spanish
Default : No
Forced : No

Text #4
ID : 6
Format : ASS
Codec ID : S_TEXT/ASS
Codec ID/Info : Advanced Sub Station Alpha
Duration : 24 min 49 s
Bit rate : 90 b/s
Count of elements : 277
Compression mode : Lossless
Stream size : 16.4 KiB (0%)
Language : Spanish
Default : No
Forced : No

Text #5
ID : 7
Format : ASS
Codec ID : S_TEXT/ASS
Codec ID/Info : Advanced Sub Station Alpha
Duration : 24 min 49 s
Bit rate : 88 b/s
Count of elements : 277
Compression mode : Lossless
Stream size : 16.0 KiB (0%)
Language : Portuguese
Default : No
Forced : No

Text #6
ID : 8
Format : ASS
Codec ID : S_TEXT/ASS
Codec ID/Info : Advanced Sub Station Alpha
Duration : 24 min 49 s
Bit rate : 86 b/s
Count of elements : 278
Compression mode : Lossless
Stream size : 15.8 KiB (0%)
Language : Portuguese
Default : No
Forced : No

Text #7
ID : 9
Format : ASS
Codec ID : S_TEXT/ASS
Codec ID/Info : Advanced Sub Station Alpha
Duration : 24 min 49 s
Bit rate : 87 b/s
Count of elements : 277
Compression mode : Lossless
Stream size : 16.0 KiB (0%)
Language : German
Default : No
Forced : No

Text #8
ID : 10
Format : ASS
Codec ID : S_TEXT/ASS
Codec ID/Info : Advanced Sub Station Alpha
Duration : 24 min 49 s
Bit rate : 88 b/s
Count of elements : 266
Compression mode : Lossless
Stream size : 16.0 KiB (0%)
Language : French
Default : No
Forced : No

Text #9
ID : 11
Format : ASS
Codec ID : S_TEXT/ASS
Codec ID/Info : Advanced Sub Station Alpha
Duration : 24 min 49 s
Bit rate : 87 b/s
Count of elements : 278
Compression mode : Lossless
Stream size : 15.9 KiB (0%)
Language : Italian
Default : No
Forced : No

Text #10
ID : 12
Format : ASS
Codec ID : S_TEXT/ASS
Codec ID/Info : Advanced Sub Station Alpha
Duration : 24 min 49 s
Bit rate : 84 b/s
Count of elements : 273
Compression mode : Lossless
Stream size : 15.4 KiB (0%)
Language : Polish
Default : No
Forced : No

Text #11
ID : 13
Format : ASS
Codec ID : S_TEXT/ASS
Codec ID/Info : Advanced Sub Station Alpha
Duration : 24 min 49 s
Bit rate : 69 b/s
Count of elements : 228
Compression mode : Lossless
Stream size : 12.7 KiB (0%)
Language : Dutch
Default : No
Forced : No

Text #12
ID : 14
Format : ASS
Codec ID : S_TEXT/ASS
Codec ID/Info : Advanced Sub Station Alpha
Duration : 24 min 49 s
Bit rate : 79 b/s
Count of elements : 258
Compression mode : Lossless
Stream size : 14.5 KiB (0%)
Language : Norwegian Bokmal
Default : No
Forced : No

Text #13
ID : 15
Format : ASS
Codec ID : S_TEXT/ASS
Codec ID/Info : Advanced Sub Station Alpha
Duration : 24 min 49 s
Bit rate : 77 b/s
Count of elements : 212
Compression mode : Lossless
Stream size : 14.1 KiB (0%)
Language : Finnish
Default : No
Forced : No

Text #14
ID : 16
Format : ASS
Codec ID : S_TEXT/ASS
Codec ID/Info : Advanced Sub Station Alpha
Duration : 24 min 49 s
Bit rate : 85 b/s
Count of elements : 278
Compression mode : Lossless
Stream size : 15.5 KiB (0%)
Language : Turkish
Default : No
Forced : No

Text #15
ID : 17
Format : ASS
Codec ID : S_TEXT/ASS
Codec ID/Info : Advanced Sub Station Alpha
Duration : 24 min 49 s
Bit rate : 82 b/s
Count of elements : 233
Compression mode : Lossless
Stream size : 15.0 KiB (0%)
Language : Swedish
Default : No
Forced : No

Text #16
ID : 18
Format : ASS
Codec ID : S_TEXT/ASS
Codec ID/Info : Advanced Sub Station Alpha
Duration : 24 min 49 s
Bit rate : 123 b/s
Count of elements : 272
Compression mode : Lossless
Stream size : 22.4 KiB (0%)
Language : Greek
Default : No
Forced : No

Text #17
ID : 19
Format : ASS
Codec ID : S_TEXT/ASS
Codec ID/Info : Advanced Sub Station Alpha
Duration : 24 min 40 s
Bit rate : 109 b/s
Count of elements : 277
Compression mode : Lossless
Stream size : 19.8 KiB (0%)
Language : Hebrew
Default : No
Forced : No

Text #18
ID : 20
Format : ASS
Codec ID : S_TEXT/ASS
Codec ID/Info : Advanced Sub Station Alpha
Duration : 24 min 49 s
Bit rate : 97 b/s
Count of elements : 270
Compression mode : Lossless
Stream size : 17.7 KiB (0%)
Language : rom
Default : No
Forced : No

Text #19
ID : 21
Format : ASS
Codec ID : S_TEXT/ASS
Codec ID/Info : Advanced Sub Station Alpha
Duration : 24 min 40 s
Bit rate : 161 b/s
Count of elements : 279
Compression mode : Lossless
Stream size : 29.1 KiB (0%)
Language : Thai
Default : No
Forced : No

Text #20
ID : 22
Format : ASS
Codec ID : S_TEXT/ASS
Codec ID/Info : Advanced Sub Station Alpha
Duration : 24 min 48 s
Bit rate : 91 b/s
Count of elements : 280
Compression mode : Lossless
Stream size : 16.7 KiB (0%)
Language : Korean
Default : No
Forced : No

Text #21
ID : 23
Format : ASS
Codec ID : S_TEXT/ASS
Codec ID/Info : Advanced Sub Station Alpha
Duration : 24 min 49 s
Bit rate : 81 b/s
Count of elements : 276
Compression mode : Lossless
Stream size : 14.9 KiB (0%)
Language : Danish
Default : No
Forced : No

Text #22
ID : 24
Format : ASS
Codec ID : S_TEXT/ASS
Codec ID/Info : Advanced Sub Station Alpha
Duration : 24 min 38 s
Bit rate : 109 b/s
Count of elements : 267
Compression mode : Lossless
Stream size : 19.7 KiB (0%)
Language : Japanese
Default : No
Forced : No

Text #23
ID : 25
Format : ASS
Codec ID : S_TEXT/ASS
Codec ID/Info : Advanced Sub Station Alpha
Duration : 24 min 49 s
Bit rate : 81 b/s
Count of elements : 278
Compression mode : Lossless
Stream size : 14.8 KiB (0%)
Language : Chinese
Default : No
Forced : No

Text #24
ID : 26
Format : ASS
Codec ID : S_TEXT/ASS
Codec ID/Info : Advanced Sub Station Alpha
Duration : 24 min 49 s
Bit rate : 83 b/s
Count of elements : 278
Compression mode : Lossless
Stream size : 15.3 KiB (0%)
Language : Chinese
Default : No
Forced : No


Screenshots

Piano no Mori (2019) (4-12)

Piano no Mori (2019) (4-12)

Piano no Mori (2019) (4-12)


My publications | Rss Channel