Tags
Language
Tags
December 2022
Su Mo Tu We Th Fr Sa
27 28 29 30 1 2 3
4 5 6 7 8 9 10
11 12 13 14 15 16 17
18 19 20 21 22 23 24
25 26 27 28 29 30 31

Vampire Knight Guilty (2008)

Posted By: Lebedev30
Vampire Knight Guilty (2008)

Vampire Knight Guilty (2008)
WEBRip | MKV | 720x480 | H264@1000 Kbps | 13x ~ 25mn | 13x ~180 Mb
日本語 E-AC-3@128 Kbps | 2 channels | Subtitles: العربية, English, Español, Português, Italiano, Français
Genre: angst, bishounen, conspiracy, contemporary fantasy, love polygon, reverse harem, romance, shoujo, tragedy, vampire


Description:
* Based on a shoujo manga by Hino Matsuri, serialised in LaLa.

Background: Cross Academy is attended by two groups of students: the Day Class and the Night Class. At twilight, when the students of the Day Class return to their dorm, they cross paths with the Night Class on their way to school. Yuuki Cross and Kiryuu Zero are the guardians of the school, there to protect the Day Class from the academy's dark secret: the Night Class is full of vampires. — from Viz

After the death of the pureblood woman who killed Zero's parents, it becomes more and more clear to the pureblood Kaname that some sinister unknown faction is manipulating vampire and human destiny from the shadows. This very powerful enemy Kaname vows to eliminate, to protect the only person dear to him, Yuuki.

Yuuki's recurring nightmarish flashbacks make her want to regain her lost memories, and investigate the events of 10 years ago. A visit to the Association's library, that chronicles the extensive history of the war between the vampires and the vampire hunters, promises some answers.

Zero, temporarily cured from the fate of becoming an out of control Level E vampire, continues to care for and protect Yuuki, and is well aware of the foreboding signs of a soon to occur showdown between the vampire factions.






01. Burden of Sinners
02. The Eternal Promise
03. The Azure Portrait
04. Devil`s Awakening
05. The Subordinate`s Trap
06. The Fake Lovers
07. The Kiss of Thorns
08. Spiraling Recollections
09. Revival of the Mad Emperor
10. Prelude to the Battle
11. Two Souls
12. World`s End
13. Vampire Knight


General
ormat : Matroska
Format version : Version 4 / Version 2
File size : 195 MiB
Duration : 24 min 13 s
Overall bit rate mode : Variable
Overall bit rate : 1 128 kb/s
Encoded date : UTC 2019-09-19 14:25:10
Writing application : mkvmerge v34.0.0 ('Sight and Seen') 64-bit
Writing library : libebml v1.3.7 + libmatroska v1.5.0

Video
ID : 1
Format : AVC
Format/Info : Advanced Video Codec
Format profile : Main@L3
Format settings : CABAC / 3 Ref Frames
Format settings, CABAC : Yes
Format settings, RefFrames : 3 frames
Codec ID : V_MPEG4/ISO/AVC
Duration : 24 min 13 s
Bit rate mode : Variable
Bit rate : 1 000 kb/s
Maximum bit rate : 1 500 kb/s
Width : 720 pixels
Height : 480 pixels
Display aspect ratio : 16:9
Frame rate mode : Constant
Frame rate : 23.976 (24000/1001) FPS
Color space : YUV
Chroma subsampling : 4:2:0
Bit depth : 8 bits
Scan type : Progressive
Bits/(Pixel*Frame) : 0.121
Stream size : 173 MiB (88%)
Writing library : x264 core 118
Encoding settings : cabac=1 / ref=3 / deblock=1:0:0 / analyse=0x1:0x111 / me=umh / subme=10 / psy=1 / psy_rd=1.00:0.00 / mixed_ref=1 / me_range=24 / chroma_me=1 / trellis=2 / 8x8dct=0 / cqm=0 / deadzone=21,11 / fast_pskip=1 / chroma_qp_offset=-2 / threads=8 / sliced_threads=0 / nr=0 / decimate=1 / interlaced=0 / bluray_compat=0 / constrained_intra=0 / bframes=2 / b_pyramid=0 / b_adapt=2 / b_bias=0 / direct=3 / weightb=1 / open_gop=0 / weightp=2 / keyint=48 / keyint_min=25 / scenecut=0 / intra_refresh=0 / rc_lookahead=0 / rc=2pass / mbtree=1 / bitrate=1000 / ratetol=1.0 / qcomp=0.50 / qpmin=6 / qpmax=51 / qpstep=4 / cplxblur=20.0 / qblur=0.5 / vbv_maxrate=1500 / vbv_bufsize=2000 / nal_hrd=vbr / ip_ratio=1.40 / aq=1:1.00
Language : Japanese
Default : Yes
Forced : No

Audio
ID : 2
Format : E-AC-3
Format/Info : Enhanced Audio Coding 3
Codec ID : A_EAC3
Duration : 24 min 13 s
Bit rate mode : Constant
Bit rate : 128 kb/s
Channel(s) : 2 channels
Channel positions : Front: L R
Sampling rate : 48.0 kHz
Frame rate : 187.500 FPS (256 SPF)
Compression mode : Lossy
Stream size : 22.2 MiB (11%)
Language : Japanese
Service kind : Complete Main
Default : Yes
Forced : No

Text #1
ID : 3
Format : ASS
Codec ID : S_TEXT/ASS
Codec ID/Info : Advanced Sub Station Alpha
Duration : 23 min 58 s
Bit rate : 100 b/s
Count of elements : 418
Compression mode : Lossless
Stream size : 17.7 KiB (0%)
Language : English
Default : Yes
Forced : No

Text #2
ID : 4
Format : ASS
Codec ID : S_TEXT/ASS
Codec ID/Info : Advanced Sub Station Alpha
Duration : 24 min 0 s
Bit rate : 112 b/s
Count of elements : 297
Compression mode : Lossless
Stream size : 19.9 KiB (0%)
Language : Arabic
Default : No
Forced : No

Text #3
ID : 5
Format : ASS
Codec ID : S_TEXT/ASS
Codec ID/Info : Advanced Sub Station Alpha
Duration : 22 min 25 s
Bit rate : 96 b/s
Count of elements : 300
Compression mode : Lossless
Stream size : 15.9 KiB (0%)
Language : Spanish
Default : No
Forced : No

Text #4
ID : 6
Format : ASS
Codec ID : S_TEXT/ASS
Codec ID/Info : Advanced Sub Station Alpha
Duration : 24 min 0 s
Bit rate : 87 b/s
Count of elements : 303
Compression mode : Lossless
Stream size : 15.5 KiB (0%)
Language : Portuguese
Default : No
Forced : No

Text #5
ID : 7
Format : ASS
Codec ID : S_TEXT/ASS
Codec ID/Info : Advanced Sub Station Alpha
Duration : 23 min 58 s
Bit rate : 96 b/s
Count of elements : 308
Compression mode : Lossless
Stream size : 17.0 KiB (0%)
Language : French
Default : No
Forced : No

Text #6
ID : 8
Format : ASS
Codec ID : S_TEXT/ASS
Codec ID/Info : Advanced Sub Station Alpha
Duration : 23 min 58 s
Bit rate : 90 b/s
Count of elements : 309
Compression mode : Lossless
Stream size : 15.9 KiB (0%)
Language : Italian
Default : No
Forced : No

Text #7
ID : 9
Format : ASS
Codec ID : S_TEXT/ASS
Codec ID/Info : Advanced Sub Station Alpha
Duration : 23 min 58 s
Bit rate : 82 b/s
Count of elements : 261
Compression mode : Lossless
Stream size : 14.4 KiB (0%)
Language : Polish
Default : No
Forced : No

Text #8
ID : 10
Format : ASS
Codec ID : S_TEXT/ASS
Codec ID/Info : Advanced Sub Station Alpha
Duration : 23 min 58 s
Bit rate : 89 b/s
Count of elements : 307
Compression mode : Lossless
Stream size : 15.7 KiB (0%)
Language : Dutch
Default : No
Forced : No

Text #9
ID : 11
Format : ASS
Codec ID : S_TEXT/ASS
Codec ID/Info : Advanced Sub Station Alpha
Duration : 23 min 59 s
Bit rate : 83 b/s
Count of elements : 266
Compression mode : Lossless
Stream size : 14.7 KiB (0%)
Language : Norwegian Bokmal
Default : No
Forced : No

Text #10
ID : 12
Format : ASS
Codec ID : S_TEXT/ASS
Codec ID/Info : Advanced Sub Station Alpha
Duration : 23 min 59 s
Bit rate : 85 b/s
Count of elements : 290
Compression mode : Lossless
Stream size : 15.1 KiB (0%)
Language : Finnish
Default : No
Forced : No

Text #11
ID : 13
Format : ASS
Codec ID : S_TEXT/ASS
Codec ID/Info : Advanced Sub Station Alpha
Duration : 23 min 59 s
Bit rate : 90 b/s
Count of elements : 301
Compression mode : Lossless
Stream size : 15.9 KiB (0%)
Language : Turkish
Default : No
Forced : No

Text #12
ID : 14
Format : ASS
Codec ID : S_TEXT/ASS
Codec ID/Info : Advanced Sub Station Alpha
Duration : 23 min 59 s
Bit rate : 85 b/s
Count of elements : 266
Compression mode : Lossless
Stream size : 15.0 KiB (0%)
Language : Swedish
Default : No
Forced : No

Text #13
ID : 15
Format : ASS
Codec ID : S_TEXT/ASS
Codec ID/Info : Advanced Sub Station Alpha
Duration : 23 min 58 s
Bit rate : 108 b/s
Count of elements : 318
Compression mode : Lossless
Stream size : 19.0 KiB (0%)
Language : Hebrew
Default : No
Forced : No

Text #14
ID : 16
Format : ASS
Codec ID : S_TEXT/ASS
Codec ID/Info : Advanced Sub Station Alpha
Duration : 23 min 58 s
Bit rate : 90 b/s
Count of elements : 320
Compression mode : Lossless
Stream size : 15.8 KiB (0%)
Language : rom
Default : No
Forced : No

Text #15
ID : 17
Format : ASS
Codec ID : S_TEXT/ASS
Codec ID/Info : Advanced Sub Station Alpha
Duration : 24 min 1 s
Bit rate : 84 b/s
Count of elements : 266
Compression mode : Lossless
Stream size : 14.8 KiB (0%)
Language : Danish
Default : No
Forced : No

Text #16
ID : 18
Format : ASS
Codec ID : S_TEXT/ASS
Codec ID/Info : Advanced Sub Station Alpha
Duration : 23 min 58 s
Bit rate : 126 b/s
Count of elements : 312
Compression mode : Lossless
Stream size : 22.3 KiB (0%)
Language : Bulgarian
Default : No
Forced : No


Screenshots

Vampire Knight Guilty (2008)

Vampire Knight Guilty (2008)

Vampire Knight Guilty (2008)


My publications | Rss Channel