Tags
Language
Tags
December 2022
Su Mo Tu We Th Fr Sa
27 28 29 30 1 2 3
4 5 6 7 8 9 10
11 12 13 14 15 16 17
18 19 20 21 22 23 24
25 26 27 28 29 30 31

Toaru Majutsu no Index (2008-2009)

Posted By: Lebedev30
Toaru Majutsu no Index (2008-2009)

Toaru Majutsu no Index (2008-2009)
WEBRip | MKV | 1920x1080 | H264@4020 Kbps | 24x ~ 25mn | 24x ~700 Mb
日本語 E-AC-3@128 Kbps | 2 channels | Subtitles: العربية, English, Español, Português, Русский, Italiano, Deutsch, Français, 日本語
Genre: action, fantasy, magic, science fiction, seinen, sudden girlfriend appearance, super power, violence


Description:
* Based on a light novel series by Kamachi Kazuma, illustrated by Haimura Kiyotaka.

Set in Academy City, a city of scientifically advanced superhuman students, located to the west of Tokyo, in a world where magic is also real. Kamijou Touma's right hand, the Imagine Breaker, can negate all magic, psychic, or divine powers, but not his own bad luck. One day he finds a young girl, Index, hanging on his balcony railing. She turns out to be a nun from the Church of England, and her mind has been implanted with the Index Librorum Prohibitorum — all the magical texts the Church has removed from circulation. His encounter leads him to meet others from the secret world of science and magic and right into an adventure where science and magic collide.

Touma's unusual power then places him at the centre of conflicts relating magicians and science-based espers in Academy City. As Touma tries to help and protect his friends, he learns the people he knows are not quite what they appear to be. To make thinks worse he begins to attract the unwanted attention of powerful magicians and espers alike, as they try to unravel the secrets of Academy City and Index.






01. Academy City
02. Innocentius (The Witch Hunter King)
03. Necessarius (The Church of Necessary Evil)
04. Perfect Memory Ability
05. Limit (12 o`clock)
06. Imagine Breaker
07. The Science Cult (Misawa Cram School)
08. Ars Magna (Golden Transmutation)
09. Deep Blood (Vampire Killer)
10. Mikoto Misaka (Sissy)
11. Sisters (Sisters)
12. Level 6 (Absolute Ability)
13. Accelerator (One Way)
14. Weakest vs. Strongest (Strongest vs. Weakest)
15. Angel Fall (Angel Fall)
16. Toya Kamijo (Father)
17. The Power of God (Archangel)
18. Replica (Impostor)
19. Last Order (The End)
20. Virus Code (Final Signal)
21. Counter Stop (Identity Unknown)
22. Golem (Stone Figure)
23. Friends (Hyoka Kazakiri)
24. Imaginary Number School District - Five-Element Agency


General
Format : Matroska
Format version : Version 4 / Version 2
File size : 701 MiB
Duration : 23 min 45 s
Overall bit rate mode : Variable
Overall bit rate : 4 126 kb/s
Encoded date : UTC 2019-09-21 15:38:15
Writing application : mkvmerge v34.0.0 ('Sight and Seen') 64-bit
Writing library : libebml v1.3.7 + libmatroska v1.5.0

Video
ID : 1
Format : AVC
Format/Info : Advanced Video Codec
Format profile : Main@L4
Format settings : CABAC / 3 Ref Frames
Format settings, CABAC : Yes
Format settings, RefFrames : 3 frames
Codec ID : V_MPEG4/ISO/AVC
Duration : 23 min 45 s
Bit rate mode : Variable
Bit rate : 4 020 kb/s
Maximum bit rate : 6 030 kb/s
Width : 1 920 pixels
Height : 1 080 pixels
Display aspect ratio : 16:9
Frame rate mode : Constant
Frame rate : 23.976 (24000/1001) FPS
Color space : YUV
Chroma subsampling : 4:2:0
Bit depth : 8 bits
Scan type : Progressive
Bits/(Pixel*Frame) : 0.081
Stream size : 678 MiB (97%)
Writing library : x264 core 118
Encoding settings : cabac=1 / ref=3 / deblock=1:0:0 / analyse=0x1:0x111 / me=umh / subme=10 / psy=1 / psy_rd=1.00:0.00 / mixed_ref=1 / me_range=24 / chroma_me=1 / trellis=2 / 8x8dct=0 / cqm=0 / deadzone=21,11 / fast_pskip=1 / chroma_qp_offset=-2 / threads=8 / sliced_threads=0 / nr=0 / decimate=1 / interlaced=0 / bluray_compat=0 / constrained_intra=0 / bframes=2 / b_pyramid=0 / b_adapt=2 / b_bias=0 / direct=3 / weightb=1 / open_gop=0 / weightp=2 / keyint=48 / keyint_min=25 / scenecut=0 / intra_refresh=0 / rc_lookahead=0 / rc=2pass / mbtree=1 / bitrate=4020 / ratetol=1.0 / qcomp=0.50 / qpmin=6 / qpmax=51 / qpstep=4 / cplxblur=20.0 / qblur=0.5 / vbv_maxrate=6030 / vbv_bufsize=8040 / nal_hrd=vbr / ip_ratio=1.40 / aq=1:1.00
Language : Japanese
Default : Yes
Forced : No

Audio
ID : 2
Format : E-AC-3
Format/Info : Enhanced Audio Coding 3
Codec ID : A_EAC3
Duration : 23 min 45 s
Bit rate mode : Constant
Bit rate : 128 kb/s
Channel(s) : 2 channels
Channel positions : Front: L R
Sampling rate : 48.0 kHz
Frame rate : 187.500 FPS (256 SPF)
Compression mode : Lossy
Stream size : 21.8 MiB (3%)
Language : Japanese
Service kind : Complete Main
Default : Yes
Forced : No

Text #1
ID : 3
Format : ASS
Codec ID : S_TEXT/ASS
Codec ID/Info : Advanced Sub Station Alpha
Duration : 23 min 24 s
Bit rate : 105 b/s
Count of elements : 301
Compression mode : Lossless
Stream size : 18.0 KiB (0%)
Language : English
Default : Yes
Forced : No

Text #2
ID : 4
Format : ASS
Codec ID : S_TEXT/ASS
Codec ID/Info : Advanced Sub Station Alpha
Duration : 23 min 25 s
Bit rate : 141 b/s
Count of elements : 300
Compression mode : Lossless
Stream size : 24.2 KiB (0%)
Language : Arabic
Default : No
Forced : No

Text #3
ID : 5
Format : ASS
Codec ID : S_TEXT/ASS
Codec ID/Info : Advanced Sub Station Alpha
Duration : 23 min 25 s
Bit rate : 139 b/s
Count of elements : 305
Compression mode : Lossless
Stream size : 24.0 KiB (0%)
Language : Russian
Default : No
Forced : No

Text #4
ID : 6
Format : ASS
Codec ID : S_TEXT/ASS
Codec ID/Info : Advanced Sub Station Alpha
Duration : 23 min 25 s
Bit rate : 96 b/s
Count of elements : 304
Compression mode : Lossless
Stream size : 16.6 KiB (0%)
Language : Spanish
Default : No
Forced : No

Text #5
ID : 7
Format : ASS
Codec ID : S_TEXT/ASS
Codec ID/Info : Advanced Sub Station Alpha
Duration : 23 min 25 s
Bit rate : 103 b/s
Count of elements : 304
Compression mode : Lossless
Stream size : 17.8 KiB (0%)
Language : Spanish
Default : No
Forced : No

Text #6
ID : 8
Format : ASS
Codec ID : S_TEXT/ASS
Codec ID/Info : Advanced Sub Station Alpha
Duration : 23 min 25 s
Bit rate : 103 b/s
Count of elements : 304
Compression mode : Lossless
Stream size : 17.7 KiB (0%)
Language : Portuguese
Default : No
Forced : No

Text #7
ID : 9
Format : ASS
Codec ID : S_TEXT/ASS
Codec ID/Info : Advanced Sub Station Alpha
Duration : 23 min 25 s
Bit rate : 103 b/s
Count of elements : 297
Compression mode : Lossless
Stream size : 17.8 KiB (0%)
Language : German
Default : No
Forced : No

Text #8
ID : 10
Format : ASS
Codec ID : S_TEXT/ASS
Codec ID/Info : Advanced Sub Station Alpha
Duration : 23 min 25 s
Bit rate : 102 b/s
Count of elements : 303
Compression mode : Lossless
Stream size : 17.6 KiB (0%)
Language : French
Default : No
Forced : No

Text #9
ID : 11
Format : ASS
Codec ID : S_TEXT/ASS
Codec ID/Info : Advanced Sub Station Alpha
Duration : 23 min 25 s
Bit rate : 103 b/s
Count of elements : 306
Compression mode : Lossless
Stream size : 17.8 KiB (0%)
Language : Italian
Default : No
Forced : No

Text #10
ID : 12
Format : ASS
Codec ID : S_TEXT/ASS
Codec ID/Info : Advanced Sub Station Alpha
Duration : 23 min 26 s
Bit rate : 94 b/s
Count of elements : 297
Compression mode : Lossless
Stream size : 16.3 KiB (0%)
Language : Polish
Default : No
Forced : No

Text #11
ID : 13
Format : ASS
Codec ID : S_TEXT/ASS
Codec ID/Info : Advanced Sub Station Alpha
Duration : 23 min 26 s
Bit rate : 100 b/s
Count of elements : 314
Compression mode : Lossless
Stream size : 17.3 KiB (0%)
Language : Dutch
Default : No
Forced : No

Text #12
ID : 14
Format : ASS
Codec ID : S_TEXT/ASS
Codec ID/Info : Advanced Sub Station Alpha
Duration : 23 min 25 s
Bit rate : 102 b/s
Count of elements : 303
Compression mode : Lossless
Stream size : 17.6 KiB (0%)
Language : Norwegian Bokmal
Default : No
Forced : No

Text #13
ID : 15
Format : ASS
Codec ID : S_TEXT/ASS
Codec ID/Info : Advanced Sub Station Alpha
Duration : 23 min 25 s
Bit rate : 99 b/s
Count of elements : 281
Compression mode : Lossless
Stream size : 17.0 KiB (0%)
Language : Finnish
Default : No
Forced : No

Text #14
ID : 16
Format : ASS
Codec ID : S_TEXT/ASS
Codec ID/Info : Advanced Sub Station Alpha
Duration : 23 min 24 s
Bit rate : 102 b/s
Count of elements : 304
Compression mode : Lossless
Stream size : 17.6 KiB (0%)
Language : Turkish
Default : No
Forced : No

Text #15
ID : 17
Format : ASS
Codec ID : S_TEXT/ASS
Codec ID/Info : Advanced Sub Station Alpha
Duration : 23 min 25 s
Bit rate : 100 b/s
Count of elements : 290
Compression mode : Lossless
Stream size : 17.2 KiB (0%)
Language : Swedish
Default : No
Forced : No

Text #16
ID : 18
Format : ASS
Codec ID : S_TEXT/ASS
Codec ID/Info : Advanced Sub Station Alpha
Duration : 23 min 25 s
Bit rate : 151 b/s
Count of elements : 315
Compression mode : Lossless
Stream size : 26.1 KiB (0%)
Language : Greek
Default : No
Forced : No

Text #17
ID : 19
Format : ASS
Codec ID : S_TEXT/ASS
Codec ID/Info : Advanced Sub Station Alpha
Duration : 23 min 25 s
Bit rate : 137 b/s
Count of elements : 301
Compression mode : Lossless
Stream size : 23.6 KiB (0%)
Language : Hebrew
Default : No
Forced : No

Text #18
ID : 20
Format : ASS
Codec ID : S_TEXT/ASS
Codec ID/Info : Advanced Sub Station Alpha
Duration : 23 min 25 s
Bit rate : 104 b/s
Count of elements : 304
Compression mode : Lossless
Stream size : 17.8 KiB (0%)
Language : rom
Default : No
Forced : No

Text #19
ID : 21
Format : ASS
Codec ID : S_TEXT/ASS
Codec ID/Info : Advanced Sub Station Alpha
Duration : 23 min 25 s
Bit rate : 102 b/s
Count of elements : 305
Compression mode : Lossless
Stream size : 17.6 KiB (0%)
Language : Danish
Default : No
Forced : No

Text #20
ID : 22
Format : ASS
Codec ID : S_TEXT/ASS
Codec ID/Info : Advanced Sub Station Alpha
Duration : 23 min 36 s
Bit rate : 143 b/s
Count of elements : 381
Compression mode : Lossless
Stream size : 24.8 KiB (0%)
Language : Japanese
Default : No
Forced : No

Text #21
ID : 23
Format : ASS
Codec ID : S_TEXT/ASS
Codec ID/Info : Advanced Sub Station Alpha
Duration : 23 min 26 s
Bit rate : 100 b/s
Count of elements : 303
Compression mode : Lossless
Stream size : 17.2 KiB (0%)
Language : Czech
Default : No
Forced : No

Text #22
ID : 24
Format : ASS
Codec ID : S_TEXT/ASS
Codec ID/Info : Advanced Sub Station Alpha
Duration : 23 min 26 s
Bit rate : 98 b/s
Count of elements : 304
Compression mode : Lossless
Stream size : 17.0 KiB (0%)
Language : Hungarian
Default : No
Forced : No


Screenshots

Toaru Majutsu no Index (2008-2009)

Toaru Majutsu no Index (2008-2009)

Toaru Majutsu no Index (2008-2009)


My publications | Rss Channel