Very Bad Things (1998)

Posted By: wcruiser
Very Bad Things (1998)

Very Bad Things (1998)
1080p BDRip | MKV | 1920x1034 | x264 @ 10000 Kbps | 1h 40mn | 10.8 GB
English DTS-HD HRA (6 ch) | English DTS (6 ch) @ 1509 Kbps
Sub: English
Genre: Comedy | Crime | Thriller

A group of friends head to Las Vegas for a bachelor party.. only things go wrong and a woman is killed. Soon, the bodies are piling up and the friends find themselves turning against one another as the coverup builds.


IMDB

General
Unique ID : 249113540088009353986112410438080688839 (0xBB6985CBC944CB0B9AA5B3E0C1A072C7)
Format : Matroska
Format version : Version 4 / Version 2
File size : 10.8 GiB
Duration : 1 h 40 min
Overall bit rate : 15.4 Mb/s
Movie name : Very.Bad.Things.1998.DTS-HD.DTS.1080p.BluRay.x264.HQ-TUSAHD
Encoded date : UTC 2016-10-30 16:32:45
Writing application : mkvmerge v9.5.0 ('Quiet Fire') 64bit
Writing library : libebml v1.3.4 + libmatroska v1.4.5

Video
ID : 1
Format : AVC
Format/Info : Advanced Video Codec
Format profile : High@L4.1
Format settings, CABAC : Yes
Format settings, ReFrames : 7 frames
Codec ID : V_MPEG4/ISO/AVC
Duration : 1 h 40 min
Bit rate : 10 000 kb/s
Width : 1 908 pixels
Height : 1 034 pixels
Display aspect ratio : 1.85:1
Frame rate mode : Constant
Frame rate : 23.976 (24000/1001) FPS
Color space : YUV
Chroma subsampling : 4:2:0
Bit depth : 8 bits
Scan type : Progressive
Bits/(Pixel*Frame) : 0.211
Stream size : 6.79 GiB (63%)
Title : Very.Bad.Things.1998.DTS-HD.DTS.1080p.BluRay.x264.HQ-TUSAHD
Writing library : x264 core 148 r2694 3b70645
Encoding settings : cabac=1 / ref=7 / deblock=1:0:0 / analyse=0x3:0x133 / me=tesa / subme=7 / psy=1 / psy_rd=1.00:0.00 / mixed_ref=0 / me_range=16 / chroma_me=1 / trellis=2 / 8x8dct=1 / cqm=0 / deadzone=21,11 / fast_pskip=1 / chroma_qp_offset=-2 / threads=8 / lookahead_threads=4 / sliced_threads=0 / nr=0 / decimate=1 / interlaced=0 / bluray_compat=0 / constrained_intra=0 / bframes=10 / b_pyramid=0 / b_adapt=2 / b_bias=0 / direct=3 / weightb=1 / open_gop=0 / weightp=2 / keyint=240 / keyint_min=24 / scenecut=40 / intra_refresh=0 / rc_lookahead=60 / rc=2pass / mbtree=1 / bitrate=10000 / ratetol=1.0 / qcomp=0.60 / qpmin=0 / qpmax=69 / qpstep=4 / cplxblur=20.0 / qblur=0.5 / vbv_maxrate=62500 / vbv_bufsize=62500 / nal_hrd=none / filler=0 / ip_ratio=1.40 / aq=1:1.00
Language : English
Default : Yes
Forced : No

Audio #1
ID : 2
Format : DTS
Format/Info : Digital Theater Systems
Format profile : HRA / Core
Mode : 16
Format settings, Endianness : Big
Codec ID : A_DTS
Duration : 1 h 40 min
Bit rate mode : Constant
Bit rate : 3 840 kb/s / 1 509 kb/s
Channel(s) : 6 channels
Channel positions : Front: L C R, Side: L R, LFE
Sampling rate : 48.0 kHz
Frame rate : 93.750 FPS (512 spf)
Bit depth : 24 bits
Compression mode : Lossy
Stream size : 2.69 GiB (25%)
Title : English DTS-HD HRA
Language : English
Default : Yes
Forced : No

Audio #2
ID : 3
Format : DTS
Format/Info : Digital Theater Systems
Mode : 16
Format settings, Endianness : Big
Codec ID : A_DTS
Duration : 1 h 40 min
Bit rate mode : Constant
Bit rate : 1 509 kb/s
Channel(s) : 6 channels
Channel positions : Front: L C R, Side: L R, LFE
Sampling rate : 48.0 kHz
Frame rate : 93.750 FPS (512 spf)
Bit depth : 24 bits
Compression mode : Lossy
Stream size : 1.06 GiB (10%)
Title : English DTS
Language : English
Default : No
Forced : No

Text
ID : 4
Format : VobSub
Muxing mode : zlib
Codec ID : S_VOBSUB
Codec ID/Info : Picture based subtitle format used on DVDs
Title : English
Language : English
Default : Yes
Forced : No

Menu
00:00:00.000 : en:00:00:00.000
00:07:21.399 : en:00:07:21.399
00:19:55.444 : en:00:19:55.444
00:33:32.636 : en:00:33:32.636
00:42:16.534 : en:00:42:16.534
00:50:33.072 : en:00:50:33.072
00:59:49.377 : en:00:59:49.377
01:17:25.850 : en:01:17:25.850
01:20:53.265 : en:01:20:53.265
01:28:35.727 : en:01:28:35.727


Very Bad Things (1998)