Tags
Language
Tags

Smurfs: The Lost Village (2017)

Posted By: Tavaz
1080p (FullHD) / BDRip IMDb
Smurfs: The Lost Village (2017)

Smurfs: The Lost Village (2017)
BDRip | MOV | 1920x1040 | English | H264 @ 4398 kbps | AC-3 @ 448 kbps | 1 h 29 min | 3.05 GiB
Subtitles: English
Genre: Adventure, Animation, Comedy, Family

In this fully animated, all-new take on the Smurfs, a mysterious map sets Smurfette and her friends Brainy, Clumsy and Hefty on an exciting race through the Forbidden Forest leading to the discovery of the biggest secret in Smurf history.

53bf26a5db5f432d9114cd8f891f3ed2.mp4 (3.0 GB)



General
Complete name : ./53bf26a5db5f432d9114cd8f891f3ed2.mp4
Format : MPEG-4
Format profile : Base Media / Version 2
Codec ID : mp42 (mp42/isom/avc1)
File size : 3.05 GiB
Duration : 1 h 29 min
Overall bit rate mode : Variable
Overall bit rate : 4 859 kb/s
Movie name : Smurfs.The.Lost.Village.2017.1080p.BluRay.H264.AC3.DD5.1
Encoded date : UTC 2020-06-16 21:47:09
Tagged date : UTC 2020-06-16 21:56:09
Writing application : DVDFab 11.0.4.2
Cover : Yes

Video
ID : 1
Format : AVC
Format/Info : Advanced Video Codec
Format profile : Main@L4
Format settings : CABAC / 2 Ref Frames
Format settings, CABAC : Yes
Format settings, RefFrames : 2 frames
Format settings, GOP : M=1, N=24
Codec ID : avc1
Codec ID/Info : Advanced Video Coding
Duration : 1 h 29 min
Bit rate mode : Variable
Bit rate : 4 399 kb/s
Maximum bit rate : 6 679 kb/s
Width : 1 920 pixels
Height : 1 040 pixels
Display aspect ratio : 1.85:1
Frame rate mode : Constant
Frame rate : 23.976 (24000/1001) FPS
Color space : YUV
Chroma subsampling : 4:2:0
Bit depth : 8 bits
Scan type : Progressive
Bits/(Pixel*Frame) : 0.092
Stream size : 2.76 GiB (91%)
Encoded date : UTC 2020-06-16 21:47:09
Tagged date : UTC 2020-06-16 21:56:09
Color primaries : BT.709
Transfer characteristics : BT.709
Matrix coefficients : BT.709

Audio
ID : 2
Format : AC-3
Format/Info : Audio Coding 3
Format settings, Endianness : Big
Codec ID : ac-3
Duration : 1 h 29 min
Bit rate mode : Constant
Bit rate : 448 kb/s
Channel(s) : 6 channels
Channel positions : Front: L C R, Side: L R, LFE
Sampling rate : 48.0 kHz
Frame rate : 31.250 FPS (1536 SPF)
Bit depth : 16 bits
Compression mode : Lossy
Stream size : 288 MiB (9%)
Title : English (ac3 5.1)
Language : English
Service kind : Complete Main
Default : Yes
Alternate group : 1
Encoded date : UTC 2020-06-16 21:47:09
Tagged date : UTC 2020-06-16 21:56:09

Text
ID : 3
Format : VobSub
Codec ID : mp4s-E0
Codec ID/Info : The same subtitle format used on DVDs
Duration : 1 h 26 min
Bit rate mode : Variable
Bit rate : 10.4 kb/s
Maximum bit rate : 3 727 Mb/s
Stream size : 6.44 MiB (0%)
Language : English
Default : Yes
Forced : No
Alternate group : 2
Encoded date : UTC 2020-06-16 21:47:09
Tagged date : UTC 2020-06-16 21:55:52





Smurfs: The Lost Village (2017)


Smurfs: The Lost Village (2017)


Smurfs: The Lost Village (2017)


Smurfs: The Lost Village (2017)


Smurfs: The Lost Village (2017)