Tags
Language
Tags

Sicario: Day of the Soldado (2018)

Posted By: Tavaz
Sicario: Day of the Soldado (2018)

Sicario: Day of the Soldado (2018)
MKV | 1280x536 | H264 @ 2800 kbps | AC-3 @ 448 kbps | 2 h 2 min | 2.75 GiB
Genre: Action, Crime, Drama, Thriller

Agent Matt Graver teams up with operative Alejandro Gillick to prevent Mexican drug cartels from smuggling terrorists across the United States border.

729ee31a03bf4531b0b5495e20dfa07e.mkv (2.8 GB)



General
Unique ID : 122922564226322451109845538356352266803 (0x5C7A06549A464A9FDAEDB31F89CC3233)
Complete name : ./729ee31a03bf4531b0b5495e20dfa07e.mkv
Format : Matroska
Format version : Version 4 / Version 2
File size : 2.75 GiB
Duration : 2 h 2 min
Overall bit rate : 3 218 kb/s
Writing application : Lavf57.82.100
Writing library : Lavf57.82.100
ErrorDetectionType : Per level 1

Video
ID : 1
Format : AVC
Format/Info : Advanced Video Codec
Format profile : High@L4.1
Format settings : CABAC / 4 Ref Frames
Format settings, CABAC : Yes
Format settings, RefFrames : 4 frames
Codec ID : V_MPEG4/ISO/AVC
Duration : 2 h 2 min
Bit rate : 2 800 kb/s
Width : 1 280 pixels
Height : 536 pixels
Display aspect ratio : 2.40:1
Frame rate mode : Constant
Frame rate : 23.976 (24000/1001) FPS
Color space : YUV
Chroma subsampling : 4:2:0
Bit depth : 8 bits
Scan type : Progressive
Bits/(Pixel*Frame) : 0.170
Stream size : 2.31 GiB (84%)
Writing library : x264 core 155 r2893 b00bcaf
Encoding settings : cabac=1 / ref=1 / deblock=1:0:0 / analyse=0x3:0x113 / me=hex / subme=2 / psy=1 / psy_rd=1.00:0.00 / mixed_ref=0 / me_range=16 / chroma_me=1 / trellis=0 / 8x8dct=1 / cqm=0 / deadzone=21,11 / fast_pskip=1 / chroma_qp_offset=0 / threads=17 / lookahead_threads=4 / sliced_threads=0 / nr=0 / decimate=1 / interlaced=0 / bluray_compat=0 / constrained_intra=0 / bframes=3 / b_pyramid=2 / b_adapt=1 / b_bias=0 / direct=1 / weightb=1 / open_gop=0 / weightp=1 / keyint=240 / keyint_min=24 / scenecut=40 / intra_refresh=0 / rc_lookahead=10 / rc=abr / mbtree=1 / bitrate=2800 / ratetol=1.0 / qcomp=0.60 / qpmin=0 / qpmax=69 / qpstep=4 / vbv_maxrate=62500 / vbv_bufsize=78125 / nal_hrd=none / filler=0 / ip_ratio=1.40 / aq=1:1.00
Default : Yes
Forced : No
Color range : Limited
Color primaries : BT.709
Transfer characteristics : BT.709
Matrix coefficients : BT.709

Audio
ID : 2
Format : AC-3
Format/Info : Audio Coding 3
Format settings, Endianness : Big
Codec ID : A_AC3
Duration : 2 h 2 min
Bit rate mode : Constant
Bit rate : 448 kb/s
Channel(s) : 6 channels
Channel positions : Front: L C R, Side: L R, LFE
Sampling rate : 48.0 kHz
Frame rate : 31.250 FPS (1536 SPF)
Bit depth : 16 bits
Compression mode : Lossy
Stream size : 392 MiB (14%)
Service kind : Complete Main
Default : Yes
Forced : No

Text
ID : 3
Format : ASS
Codec ID : S_TEXT/ASS
Codec ID/Info : Advanced Sub Station Alpha
Duration : 1 h 44 min
Compression mode : Lossless
Writing library : Lavc57.106.101 ssa
Default : Yes
Forced : Yes

Menu





Sicario: Day of the Soldado (2018)


Sicario: Day of the Soldado (2018)


Sicario: Day of the Soldado (2018)


Sicario: Day of the Soldado (2018)


Sicario: Day of the Soldado (2018)