Tags
Language
Tags

Shatter (1974)

Posted By: Tavaz
1080p (FullHD) / BDRip IMDb
Shatter (1974)

Shatter (1974)
BDRip | MKV | 1920x1036 | English | H264 @ 11581 kbps | FLAC @ 300 kbps | 1 h 30 min | 7.56 GiB
Subtitles: English
Genre: Action, Thriller

Shatter, an international contract killer, has been assigned to assassinate the President of a small African country and collect his fee from a bank in the Far East. On arrival in Hong Kong his life is threatened and when the bank denies all knowledge of payment arrangements, he realises he has been drawn into a dangerous game where there are no rules. Amongst the players are the Mafia and several foreign intelligence services and the stakes being played for are deadly.

50cf31530d463652c7a34574ed10bb75.mkv (7.6 GB)



General
Complete name : ./50cf31530d463652c7a34574ed10bb75.mkv
Format : Matroska
Format version : Version 4 / Version 2
File size : 7.56 GiB
Duration : 1 h 30 min
Overall bit rate mode : Variable
Overall bit rate : 12.0 Mb/s
Encoded date : UTC 2020-05-22 10:30:22
Writing application : mkvmerge v46.0.0 ('No Deeper Escape') 64-bit
Writing library : libebml v1.3.10 + libmatroska v1.5.2

Video
ID : 1
Format : AVC
Format/Info : Advanced Video Codec
Format profile : High@L4.1
Format settings : CABAC / 4 Ref Frames
Format settings, CABAC : Yes
Format settings, RefFrames : 4 frames
Codec ID : V_MPEG4/ISO/AVC
Duration : 1 h 30 min
Bit rate : 11.6 Mb/s
Width : 1 920 pixels
Height : 1 036 pixels
Display aspect ratio : 1.85:1
Frame rate mode : Constant
Frame rate : 23.976 (24000/1001) FPS
Color space : YUV
Chroma subsampling : 4:2:0
Bit depth : 8 bits
Scan type : Progressive
Bits/(Pixel*Frame) : 0.243
Stream size : 7.32 GiB (97%)
Writing library : x264 core 157 r2935 545de2f
Encoding settings : cabac=1 / ref=4 / deblock=1:-3:-3 / analyse=0x3:0x133 / me=umh / subme=10 / psy=1 / psy_rd=1.00:0.00 / mixed_ref=1 / me_range=32 / chroma_me=1 / trellis=2 / 8x8dct=1 / cqm=0 / deadzone=21,11 / fast_pskip=0 / chroma_qp_offset=-2 / threads=18 / lookahead_threads=4 / sliced_threads=0 / nr=0 / decimate=0 / interlaced=0 / bluray_compat=0 / constrained_intra=0 / bframes=16 / b_pyramid=2 / b_adapt=2 / b_bias=0 / direct=3 / weightb=1 / open_gop=0 / weightp=1 / keyint=240 / keyint_min=24 / scenecut=40 / intra_refresh=0 / rc_lookahead=60 / rc=crf / mbtree=0 / crf=21.0 / qcomp=0.60 / qpmin=0 / qpmax=69 / qpstep=4 / vbv_maxrate=62500 / vbv_bufsize=78125 / crf_max=0.0 / nal_hrd=none / filler=0 / ip_ratio=1.40 / pb_ratio=1.30 / aq=2:1.00
Default : Yes
Forced : No
Color range : Limited
Color primaries : BT.709
Transfer characteristics : BT.709
Matrix coefficients : BT.709

Audio #1
ID : 2
Format : FLAC
Format/Info : Free Lossless Audio Codec
Codec ID : A_FLAC
Duration : 1 h 30 min
Bit rate mode : Variable
Bit rate : 300 kb/s
Channel(s) : 2 channels
Sampling rate : 48.0 kHz
Frame rate : 11.719 FPS (4096 SPF)
Bit depth : 16 bits
Stream size : 194 MiB (3%)
Writing library : libFLAC 1.2.1 (UTC 2007-09-17)
Language : English
Default : Yes
Forced : No

Audio #2
ID : 3
Format : AAC
Format/Info : Advanced Audio Codec
Format profile : HE-AAC / LC
Format settings : Explicit
Codec ID : A_AAC-2
Duration : 1 h 30 min
Bit rate : 80.0 kb/s
Channel(s) : 2 channels
Channel positions : Front: L R
Sampling rate : 48.0 kHz / 24.0 kHz
Frame rate : 23.438 FPS (1024 SPF)
Compression mode : Lossy
Delay relative to video : 31 ms
Stream size : 51.8 MiB (1%)
Title : Commentary With Uncredited Co-director Monte Hellman And Star Stuart Whitman, Moderated By Norman Hill
Language : English
Default : No
Forced : No

Text
ID : 4
Format : UTF-8
Codec ID : S_TEXT/UTF8
Codec ID/Info : UTF-8 Plain Text
Duration : 1 h 30 min
Bit rate : 38 b/s
Count of elements : 1002
Stream size : 25.8 KiB (0%)
Language : English
Default : No
Forced : No

Menu
00:00:00.000 : :Chapter 1
00:07:53.890 : :Chapter 2
00:14:31.329 : :Chapter 3
00:20:54.837 : :Chapter 4
00:28:07.728 : :Chapter 5
00:35:07.063 : :Chapter 6
00:43:10.463 : :Chapter 7
00:49:48.569 : :Chapter 8
00:56:36.894 : :Chapter 9
01:06:43.875 : :Chapter 10
01:12:37.019 : :Chapter 11
01:19:13.332 : :Chapter 12





Shatter (1974)


Shatter (1974)


Shatter (1974)


Shatter (1974)


Shatter (1974)