Tags
Language
Tags

Red River (1948)

Posted By: Tavaz
Red River (1948)

Red River (1948)
MKV | 1280x720 | H264 @ 5371 kbps | AC-3 @ 384 kbps | 2 h 12 min | 5.44 GiB
Genre: Western

Dunson is driving his cattle to Red River when his adopted son, Matthew, turns against him.

RED RIVER 1948 1080p.1.srt (126.4 KB)
RED RIVER 1948 1080p.srt (126.4 KB)
RED RIVER 1948 1080p.mkv (5.4 GB)



General
Unique ID : 186925846864669385286800591299507473126 (0x8CA09BCC4516AB75A996D0429EC14AE6)
Complete name : ./RED RIVER 1948 1080p.mkv
Format : Matroska
Format version : Version 4 / Version 2
File size : 5.44 GiB
Duration : 2 h 12 min
Overall bit rate mode : Variable
Overall bit rate : 5 872 kb/s
Writing application : Lavf56.30.100
Writing library : Lavf56.30.100
LABEL : Hoofdstuk 13
Language : eng
TCHAPTER : 158238848

Video
ID : 1
Format : AVC
Format/Info : Advanced Video Codec
Format profile : High@L4.1
Format settings : CABAC / 1 Ref Frames
Format settings, CABAC : Yes
Format settings, RefFrames : 1 frame
Codec ID : V_MPEG4/ISO/AVC
Duration : 2 h 12 min
Bit rate mode : Variable
Bit rate : 5 371 kb/s
Maximum bit rate : 6 600 kb/s
Width : 1 280 pixels
Height : 720 pixels
Display aspect ratio : 16:9
Frame rate mode : Constant
Frame rate : 23.976 (24000/1001) FPS
Color space : YUV
Chroma subsampling : 4:2:0
Bit depth : 8 bits
Scan type : Progressive
Bits/(Pixel*Frame) : 0.243
Stream size : 4.98 GiB (91%)
Title : h264_qsync_hw 1280x720 16/9
Default : No
Forced : No
Track/Position : 0

Audio
ID : 2
Format : AC-3
Format/Info : Audio Coding 3
Format settings, Endianness : Big
Codec ID : A_AC3
Duration : 2 h 12 min
Bit rate mode : Constant
Bit rate : 384 kb/s
Channel(s) : 6 channels
Channel positions : Front: L C R, Side: L R, LFE
Sampling rate : 48.0 kHz
Frame rate : 31.250 FPS (1536 SPF)
Bit depth : 16 bits
Compression mode : Lossy
Stream size : 364 MiB (7%)
Title : ac3 48000Hz 6Ch.
Service kind : Complete Main
Default : Yes
Forced : No
Track/Position : 1

Text
ID : 3
Format : UTF-8
Codec ID : S_TEXT/UTF8
Codec ID/Info : UTF-8 Plain Text
Title : subrip 1280x720
Default : Yes
Forced : No
Track/Position : 2

Menu
00:02:54.400 : :Hoofdstuk 1
00:13:29.696 : :Hoofdstuk 2
00:22:12.895 : :Hoofdstuk 3
00:37:09.791 : :Hoofdstuk 4
00:49:12.255 : :Hoofdstuk 5
01:00:24.918 : :Hoofdstuk 6
01:08:30.752 : :Hoofdstuk 7
01:20:33.247 : :Hoofdstuk 8
01:31:20.992 : :Hoofdstuk 9
01:38:12.049 : :Hoofdstuk 10
01:47:32.603 : :Hoofdstuk 11
01:56:28.256 : :Hoofdstuk 12
02:05:36.351 : :Hoofdstuk 13





Red River (1948)


Red River (1948)


Red River (1948)


Red River (1948)


Red River (1948)