Tags
Language
Tags

RED 2 (2013)

Posted By: Tavaz
1080p (FullHD) / BDRip IMDb
RED 2 (2013)

RED 2 (2013)
BDRip | MOV | 1920x800 | English | H264 @ 4289 kbps | AC-3 @ 640 kbps | 1 h 56 min | 3.99 GiB
Genre: Action, Comedy, Crime, Thriller

Retired C.I.A. agent Frank Moses reunites his unlikely team of elite operatives for a global quest to track down a missing portable nuclear device.

d8665f5ab61c416a96830e51183b0b37.mp4 (4.0 GB)



General
Complete name : ./d8665f5ab61c416a96830e51183b0b37.mp4
Format : MPEG-4
Format profile : Base Media / Version 2
Codec ID : mp42 (mp42/isom/avc1)
File size : 3.99 GiB
Duration : 1 h 56 min
Overall bit rate : 4 926 kb/s
Encoded date : UTC 2013-11-15 22:48:35
Tagged date : UTC 2013-11-16 04:11:31
Writing application : HandBrake 0.9.9 2013052900

Video
ID : 1
Format : AVC
Format/Info : Advanced Video Codec
Format profile : High@L4.1
Format settings : CABAC / 4 Ref Frames
Format settings, CABAC : Yes
Format settings, RefFrames : 4 frames
Codec ID : avc1
Codec ID/Info : Advanced Video Coding
Duration : 1 h 56 min
Bit rate : 4 289 kb/s
Width : 1 920 pixels
Height : 800 pixels
Display aspect ratio : 2.40:1
Frame rate mode : Variable
Frame rate : 23.976 FPS
Minimum frame rate : 16.529 FPS
Maximum frame rate : 25.147 FPS
Color space : YUV
Chroma subsampling : 4:2:0
Bit depth : 8 bits
Scan type : Progressive
Bits/(Pixel*Frame) : 0.116
Stream size : 3.47 GiB (87%)
Writing library : x264 core 130 r2273 b3065e6
Encoding settings : cabac=1 / ref=4 / deblock=1:-3:-3 / analyse=0x3:0x113 / me=umh / subme=11 / psy=1 / psy_rd=1.00:0.20 / mixed_ref=1 / me_range=64 / chroma_me=1 / trellis=2 / 8x8dct=1 / cqm=0 / deadzone=21,11 / fast_pskip=0 / chroma_qp_offset=-3 / threads=12 / lookahead_threads=1 / sliced_threads=0 / nr=0 / decimate=1 / interlaced=0 / bluray_compat=0 / constrained_intra=0 / bframes=5 / b_pyramid=2 / b_adapt=2 / b_bias=0 / direct=3 / weightb=1 / open_gop=0 / weightp=2 / keyint=240 / keyint_min=24 / scenecut=40 / intra_refresh=0 / rc_lookahead=40 / rc=2pass / mbtree=1 / bitrate=4289 / ratetol=1.0 / qcomp=0.60 / qpmin=0 / qpmax=69 / qpstep=4 / cplxblur=20.0 / qblur=0.5 / vbv_maxrate=18500 / vbv_bufsize=16000 / nal_hrd=none / ip_ratio=1.40 / aq=1:0.80
Encoded date : UTC 2013-11-15 22:48:35
Tagged date : UTC 2013-11-16 04:11:31
Color range : Limited
Color primaries : BT.709
Transfer characteristics : BT.709
Matrix coefficients : BT.709
Menus : 3

Audio
ID : 2
Format : AC-3
Format/Info : Audio Coding 3
Format settings, Endianness : Big
Codec ID : ac-3
Duration : 1 h 56 min
Bit rate mode : Constant
Bit rate : 640 kb/s
Channel(s) : 6 channels
Channel positions : Front: L C R, Side: L R, LFE
Sampling rate : 48.0 kHz
Frame rate : 31.250 FPS (1536 SPF)
Bit depth : 16 bits
Compression mode : Lossy
Stream size : 531 MiB (13%)
Title : Surround
Language : English
Service kind : Complete Main
Encoded date : UTC 2013-11-15 22:48:35
Tagged date : UTC 2013-11-16 04:11:30

Menu
ID : 3
Codec ID : text
Duration : 1 h 56 min
Encoded date : UTC 2013-11-15 22:48:35
Tagged date : UTC 2013-11-16 04:11:30
Menu For : 1
00:00:00.000 : Chapter 1
00:08:31.136 : Chapter 2
00:15:02.235 : Chapter 3
00:21:30.540 : Chapter 4
00:28:33.379 : Chapter 5
00:39:50.960 : Chapter 6
00:47:24.518 : Chapter 7
00:54:32.654 : Chapter 8
01:00:21.419 : Chapter 9
01:07:47.114 : Chapter 10
01:11:48.898 : Chapter 11
01:18:52.863 : Chapter 12
01:23:16.376 : Chapter 13
01:28:01.161 : Chapter 14
01:35:52.548 : Chapter 15
01:41:44.400 : Chapter 16
01:45:24.119 : Chapter 17
01:47:00.007 : Chapter 18
Bit rate mode : VBR





RED 2 (2013)


RED 2 (2013)


RED 2 (2013)


RED 2 (2013)


RED 2 (2013)