Tags
Language
Tags

Mademoiselle (1966) [British Film Institute]

Posted By: RSU75
1080p (FullHD) / BluRay IMDb
Mademoiselle (1966) [British Film Institute]

Mademoiselle (1966) [British Film Institute]
Blu-Ray | BDMV | AVC, 1920x1080, ~36.7 Mbps | 1hr 43mn | 43,9 GB
English: LPCM Audio, 2 ch, 2304 kbps \ English: LPCM Audio, 2 ch, 2304 kbps
Subtitles: English
Genre: Drama



Director: Tony Richardson
Writers: Marguerite Duras, Jean Genet (story)
Stars: Jeanne Moreau, Ettore Manni, Keith Skinner

Film Distributor: BFI (British Film Institute)

A supressed and sociopathic school teacher unsuspectedly torments residents of a small French village with acts of violence and destruction. An erotic obsession with an ostracised outsider causes her behaviour to become yet more erratic but, as tensions in the community reach boiling point, will the villagers see beyond their prejudices?

Extras:
- Newly recorded audio commentary by Adrian Martin
- Doll's Eye (1983): rare and never before released BFI Production Board film directed by Jan Worth that examines contradictory male attitudes to women as they affect a researcher, a prostitute and a switchboard operator
- Image gallery
- Original theatrical trailer
- Interview with Keith Skinner (2020): the actor and historian discusses his work on Mademoiselle




                                                                                                                Total   Video                                             
Title                                                           Codec   Length  Movie Size      Disc Size       Bitrate Bitrate Main Audio Track                          Secondary Audio Track
-----                                                           ------  ------- --------------  --------------  ------- ------- ------------------                        ---------------------
00322.MPLS                                                      AVC     1:43:36 33 640 582 080  47 161 719 635  43,30   36,69   LPCM 2.0 2304Kbps (48kHz/24-bit)          LPCM 2.0 2304Kbps (48kHz/24-bit)


DISC INFO:

Disc Title:     Mademoiselle.1966.BFI.Br
Disc Size:      47 161 719 635 bytes
Protection:     AACS
BD-Java:        Yes
BDInfo:         0.5.8

PLAYLIST REPORT:

Name:                   00322.MPLS
Length:                 1:43:36.001 (h:m:s.ms)
Size:                   33 640 582 080 bytes
Total Bitrate:          43,30 Mbps

VIDEO:

Codec                   Bitrate             Description     
-----                   -------             -----------     
MPEG-4 AVC Video        36692 kbps          1080p / 23,976 fps / 16:9 / High Profile 4.1

AUDIO:

Codec                           Language        Bitrate         Description     
-----                           --------        -------         -----------     
LPCM Audio                      English         2304 kbps       2.0 / 48 kHz / 2304 kbps / 24-bit
LPCM Audio                      English         2304 kbps       2.0 / 48 kHz / 2304 kbps / 24-bit

SUBTITLES:

Codec                           Language        Bitrate         Description     
-----                           --------        -------         -----------     
Presentation Graphics           English         14,788 kbps                     
Presentation Graphics           English         1,828 kbps                      

FILES:

Name            Time In         Length          Size            Total Bitrate   
----            -------         ------          ----            -------------   
00000.M2TS      0:00:00.000     0:07:16.727     2 375 131 392   43 504          
00000.M2TS      0:07:16.727     0:23:05.550     7 474 141 248   43 153          
00000.M2TS      0:30:22.278     0:20:46.078     6 695 095 680   42 982          
00000.M2TS      0:51:08.356     0:00:45.879     243 564 480     42 432          
00000.M2TS      0:51:54.236     0:00:43.585     226 605 312     41 553          
00000.M2TS      0:52:37.821     0:03:23.912     1 081 458 048   42 420          
00000.M2TS      0:56:01.733     0:00:40.081     222 246 912     44 359          
00000.M2TS      0:56:41.815     0:00:42.375     213 202 944     40 250          
00000.M2TS      0:57:24.190     0:00:39.122     213 338 112     43 625          
00000.M2TS      0:58:03.313     0:20:18.634     6 710 761 728   44 053          
00000.M2TS      1:18:21.947     0:00:45.086     242 030 592     42 905          
00000.M2TS      1:19:07.034     0:00:47.547     236 218 368     39 744          
00000.M2TS      1:19:54.581     0:00:56.598     298 168 320     42 145          
00000.M2TS      1:20:51.179     0:01:28.546     481 111 680     43 447          
00000.M2TS      1:22:19.726     0:00:54.512     299 372 544     43 934          
00000.M2TS      1:23:14.239     0:00:56.556     290 463 744     41 087          
00000.M2TS      1:24:10.795     0:19:25.205     6 337 670 976   43 513          

CHAPTERS:

Number          Time In         Length          Avg Video Rate  Max 1-Sec Rate  Max 1-Sec Time  Max 5-Sec Rate  Max 5-Sec Time  Max 10Sec Rate  Max 10Sec Time  Avg Frame Size  Max Frame Size  Max Frame Time  
------          -------         ------          --------------  --------------  --------------  --------------  --------------  --------------  --------------  --------------  --------------  --------------  
1               0:00:00.000     0:09:02.541     36 885 kbps     43 917 kbps     00:05:28.369    38 072 kbps     00:02:21.266    37 910 kbps     00:02:21.266    192 288 bytes   393 424 bytes   00:03:01.431    
2               0:09:02.541     0:09:33.906     37 409 kbps     39 493 kbps     00:18:33.987    38 108 kbps     00:18:30.943    37 921 kbps     00:18:14.510    195 036 bytes   415 867 bytes   00:18:35.948    
3               0:18:36.448     0:17:53.155     35 627 kbps     39 947 kbps     00:31:13.705    38 119 kbps     00:18:44.873    37 964 kbps     00:18:39.868    185 741 bytes   422 787 bytes   00:18:45.958    
4               0:36:29.604     0:17:18.912     37 593 kbps     39 374 kbps     00:50:47.085    38 113 kbps     00:50:43.081    37 928 kbps     00:39:32.620    195 991 bytes   410 984 bytes   00:50:42.164    
5               0:53:48.516     0:15:18.250     35 496 kbps     39 519 kbps     01:08:21.388    38 100 kbps     01:08:21.514    37 935 kbps     01:08:20.554    185 062 bytes   579 699 bytes   01:05:27.006    
6               1:09:06.767     0:11:37.571     37 651 kbps     39 399 kbps     01:14:31.925    38 070 kbps     01:14:42.519    37 935 kbps     01:14:22.875    196 296 bytes   383 178 bytes   01:13:56.807    
7               1:20:44.339     0:08:22.752     36 660 kbps     41 099 kbps     01:24:01.745    38 404 kbps     01:23:57.741    38 056 kbps     01:23:52.736    191 128 bytes   353 892 bytes   01:23:31.256    
8               1:29:07.091     0:08:23.753     37 431 kbps     39 383 kbps     01:33:28.144    38 125 kbps     01:33:50.041    37 943 kbps     01:33:42.074    195 134 bytes   409 442 bytes   01:33:42.116    
9               1:37:30.845     0:06:05.156     747 212 kbps    41 099 kbps     00:32:38.498    38 404 kbps     00:32:34.494    38 056 kbps     00:32:29.489    190 817 bytes   579 699 bytes   00:14:03.759    

STREAM DIAGNOSTICS:

File            PID             Type            Codec           Language                Seconds                 Bitrate                 Bytes           Packets         
----            ---             ----            -----           --------                --------------          --------------          -------------   -----           
00000.M2TS      4113 (0x1011)   0x1B            AVC                                     6215,960                36 692                  28 509 294 707  155 028 465     
00000.M2TS      4352 (0x1100)   0x80            LPCM            eng (English)           6215,960                2 310                   1 795 205 348   9 945 736       
00000.M2TS      4353 (0x1101)   0x80  			  		  		  		 	    	 			   		  	   		  		  		 	    	 			   		  	   		      		 			  	 			   		   	  		      		    			           LPCM            eng (English)           6215,960                2 309                   1 794 170 000   9 940 000       
00000.M2TS      4608 (0x1200)   0x90            PGS             eng (English)           6215,960                15                      11 491 031      67 843          
00000.M2TS      4609 (0x1201)   0x90            PGS             eng (English)           6215,960                2                       1 420 132       8 449           





Screenshots (click to enlarge to original size):

Mademoiselle (1966) [British Film Institute]

Mademoiselle (1966) [British Film Institute]

Mademoiselle (1966) [British Film Institute]



All thanks to the original uploader



More in My Blog



If you like this release please visit my blog
In it you will find ALL the latest BFI releases