Tags
Language
Tags

Madea's Witness Protection (2012)

Posted By: Tavaz
1080p (FullHD) / BDRip IMDb
Madea's Witness Protection (2012)

Madea's Witness Protection (2012)
BDRip | MOV | 1920x1080 | English | H264 @ 3308 kbps | AC-3 @ 448 kbps | 1 h 54 min | 3.01 GiB
Genre: Comedy, Crime, Drama

A Wall Street investment banker who has been set up as the linchpin of his company's mob-backed Ponzi scheme is relocated with his family to Aunt Madea's southern home.

916eda066dc143619bebd0da3df4ecc6.mp4 (3.0 GB)



General
Complete name : ./916eda066dc143619bebd0da3df4ecc6.mp4
Format : MPEG-4
Format profile : Base Media / Version 2
Codec ID : mp42 (mp42/isom/avc1)
File size : 3.01 GiB
Duration : 1 h 54 min
Overall bit rate mode : Variable
Overall bit rate : 3 759 kb/s
Movie name : Madeas.Witness.Protection.2012.1080p.BluRay.H264.AC3.DD5.1
Encoded date : UTC 2020-06-27 21:24:49
Tagged date : UTC 2020-06-27 21:35:56
Writing application : DVDFab 11.0.4.2
Cover : Yes

Video
ID : 1
Format : AVC
Format/Info : Advanced Video Codec
Format profile : Main@L4
Format settings : CABAC / 2 Ref Frames
Format settings, CABAC : Yes
Format settings, RefFrames : 2 frames
Format settings, GOP : M=1, N=24
Codec ID : avc1
Codec ID/Info : Advanced Video Coding
Duration : 1 h 54 min
Source duration : 1 h 54 min
Bit rate mode : Variable
Bit rate : 3 308 kb/s
Maximum bit rate : 5 062 kb/s
Width : 1 920 pixels
Height : 1 080 pixels
Display aspect ratio : 16:9
Frame rate mode : Constant
Frame rate : 23.976 (24000/1001) FPS
Color space : YUV
Chroma subsampling : 4:2:0
Bit depth : 8 bits
Scan type : Progressive
Bits/(Pixel*Frame) : 0.067
Stream size : 2.65 GiB (88%)
Source stream size : 2.65 GiB (88%)
Encoded date : UTC 2020-06-27 21:24:49
Tagged date : UTC 2020-06-27 21:35:56
Color primaries : BT.709
Transfer characteristics : BT.709
Matrix coefficients : BT.709
Menus : 3

Audio
ID : 2
Format : AC-3
Format/Info : Audio Coding 3
Format settings, Endianness : Big
Codec ID : ac-3
Duration : 1 h 54 min
Bit rate mode : Constant
Bit rate : 448 kb/s
Channel(s) : 6 channels
Channel positions : Front: L C R, Side: L R, LFE
Sampling rate : 48.0 kHz
Frame rate : 31.250 FPS (1536 SPF)
Bit depth : 16 bits
Compression mode : Lossy
Stream size : 367 MiB (12%)
Title : English (ac3 5.1)
Language : English
Service kind : Complete Main
Default : Yes
Alternate group : 1
Encoded date : UTC 2020-06-27 21:24:49
Tagged date : UTC 2020-06-27 21:35:56

Menu
ID : 3
Codec ID : text
Duration : 1 h 54 min
Encoded date : UTC 2020-06-27 21:24:49
Tagged date : UTC 2020-06-27 21:35:56
Menu For : 1
00:00:00.000 : Chapter 1
00:05:48.431 : Chapter 2
00:14:51.807 : Chapter 3
00:21:54.146 : Chapter 4
00:30:17.357 : Chapter 5
00:39:32.703 : Chapter 6
00:47:53.370 : Chapter 7
00:56:56.913 : Chapter 8
01:06:39.370 : Chapter 9
01:10:24.136 : Chapter 10
01:19:36.438 : Chapter 11
01:27:40.755 : Chapter 12
01:32:48.396 : Chapter 13
01:37:37.351 : Chapter 14
01:43:55.937 : Chapter 15
01:46:35.805 : Chapter 16
Bit rate mode : VBR





Madea's Witness Protection (2012)


Madea's Witness Protection (2012)


Madea's Witness Protection (2012)


Madea's Witness Protection (2012)


Madea's Witness Protection (2012)