Tags
Language
Tags

John Wick 2 / John Wick: Chapter 2 (2017)

Posted By: EXGenerator
John Wick 2 / John Wick: Chapter 2 (2017)

John Wick 2 / John Wick: Chapter 2 (2017)
HDRip | AVI | 2h 2mn | 720x304 | XVID@1330 Kbps | French (dubbed) | MP3@320 Kpbs | 2 channels | Subtitles: None | 1.41 GB
Genre: Action, Crime, Thriller

John Wick est forcé de sortir de sa retraite volontaire par un de ses ex-associés qui cherche à prendre le contrôle d?une mystérieuse confrérie de tueurs internationaux. Parce qu?il est lié à cet homme par un serment, John se rend à Rome, où il va devoir affronter certains des tueurs les plus dangereux du monde.


Video
ID : 0
Format : MPEG-4 Visual
Format profile : Advanced Simple@L5
Format settings, BVOP : 2
Format settings, QPel : No
Format settings, GMC : No warppoints
Format settings, Matrix : Default (MPEG)
Codec ID : XVID
Codec ID/Hint : XviD
Duration : 2 h 2 min
Bit rate : 1 330 kb/s
Width : 720 pixels
Height : 304 pixels
Display aspect ratio : 2.35:1
Frame rate : 24.000 FPS
Original frame rate : 25.000 FPS
Color space : YUV
Chroma subsampling : 4:2:0
Bit depth : 8 bits
Scan type : Progressive
Compression mode : Lossy
Bits/(Pixel*Frame) : 0.253
Stream size : 1.13 GiB (81%)
Writing library : XviD 1.2.1 (UTC 2008-12-04)

Audio
ID : 1
Format : MPEG Audio
Format version : Version 1
Format profile : Layer 3
Codec ID : 55
Codec ID/Hint : MP3
Duration : 1 h 57 min
Bit rate mode : Constant
Bit rate : 320 kb/s
Channel(s) : 2 channels
Sampling rate : 48.0 kHz
Compression mode : Lossy
Delay relative to video : 12 s 480 ms
Stream size : 270 MiB (19%)
Alignment : Split accross interleaves
Interleave, duration : 43 ms (1.04 video frame)
Interleave, preload duration : 480 ms


HDRiP screenshots

John Wick 2 / John Wick: Chapter 2 (2017)

John Wick 2 / John Wick: Chapter 2 (2017)

John Wick 2 / John Wick: Chapter 2 (2017)

John Wick 2 / John Wick: Chapter 2 (2017)