Tags
Language
Tags
December 2022
Su Mo Tu We Th Fr Sa
27 28 29 30 1 2 3
4 5 6 7 8 9 10
11 12 13 14 15 16 17
18 19 20 21 22 23 24
25 26 27 28 29 30 31

Jesus Christ Superstar (1973)

Posted By: Tavaz
1080p (FullHD) / BDRip IMDb
Jesus Christ Superstar (1973)

Jesus Christ Superstar (1973)
BDRip | MKV | 1920x816 | English | H264 @ 10233 kbps | DTS @ 1509 kbps | 1 h 46 min | 8.74 GiB
Subtitles: English
Genre: Music, History, Drama

Oscar-nominated film adaptation of the rock opera of the same name, based on the last weeks before the crucifixion of Jesus. The film was directed by Norman Jewison. Ted Neeley and Carl Anderson were nominated for two 1974 Golden Globe Award for their portrayals of Jesus and Judas, respectively.

Jesus.Christ.Superstar.1973.1080p.BluRay.X264-AMIABLE.part1.rar (4.6 GB)
Jesus.Christ.Superstar.1973.1080p.BluRay.X264-AMIABLE.part2.rar (4.2 GB)



General
Complete name : ./d6bc6c7486f0a93483fdd1bc0de075c8.mkv
Format : Matroska
Format version : Version 2
File size : 8.74 GiB
Duration : 1 h 46 min
Overall bit rate : 11.7 Mb/s
Writing application : mkvmerge v4.1.1 ('Bouncin' Back') built on Jul 3 2010 22:54:08
Writing library : libebml v1.0.0 + libmatroska v1.0

Video
ID : 1
Format : AVC
Format/Info : Advanced Video Codec
Format profile : High@L4.1
Format settings : CABAC / 5 Ref Frames
Format settings, CABAC : Yes
Format settings, RefFrames : 5 frames
Codec ID : V_MPEG4/ISO/AVC
Duration : 1 h 46 min
Bit rate : 10.2 Mb/s
Width : 1 920 pixels
Height : 816 pixels
Display aspect ratio : 2.35:1
Frame rate mode : Constant
Frame rate : 23.976 (24000/1001) FPS
Color space : YUV
Chroma subsampling : 4:2:0
Bit depth : 8 bits
Scan type : Progressive
Bits/(Pixel*Frame) : 0.272
Stream size : 7.44 GiB (85%)
Writing library : x264 core 130 r2273 b3065e6
Encoding settings : cabac=1 / ref=5 / deblock=1:-3:-3 / analyse=0x3:0x113 / me=umh / subme=8 / psy=1 / psy_rd=1.00:0.00 / mixed_ref=1 / me_range=16 / chroma_me=1 / trellis=1 / 8x8dct=1 / cqm=0 / deadzone=21,11 / fast_pskip=1 / chroma_qp_offset=-2 / threads=12 / lookahead_threads=2 / sliced_threads=0 / nr=0 / decimate=1 / interlaced=0 / bluray_compat=0 / constrained_intra=0 / bframes=3 / b_pyramid=2 / b_adapt=2 / b_bias=0 / direct=3 / weightb=1 / open_gop=0 / weightp=2 / keyint=240 / keyint_min=24 / scenecut=40 / intra_refresh=0 / rc_lookahead=50 / rc=2pass / mbtree=1 / bitrate=10233 / ratetol=1.0 / qcomp=0.60 / qpmin=0 / qpmax=69 / qpstep=4 / cplxblur=20.0 / qblur=0.5 / ip_ratio=1.40 / aq=1:1.00
Language : English
Default : Yes
Forced : No

Audio
ID : 2
Format : DTS
Format/Info : Digital Theater Systems
Mode : 16
Format settings, Endianness : Big
Codec ID : A_DTS
Duration : 1 h 46 min
Bit rate mode : Constant
Bit rate : 1 509 kb/s
Channel(s) : 6 channels
Channel(s)_Original : 2 channels
Channel positions : Front: L R
Sampling rate : 48.0 kHz
Frame rate : 93.750 FPS (512 SPF)
Bit depth : 24 bits
Compression mode : Lossy
Stream size : 1.12 GiB (13%)
Language : English
Default : Yes
Forced : No

Text #1
ID : 3
Format : UTF-8
Codec ID : S_TEXT/UTF8
Codec ID/Info : UTF-8 Plain Text
Title : SDH
Language : English
Default : No
Forced : No

Text #2
ID : 4
Format : UTF-8
Codec ID : S_TEXT/UTF8
Codec ID/Info : UTF-8 Plain Text
Language : English
Default : No
Forced : No

Menu
00:00:00.000 : en:00:00:00.000
00:10:57.448 : en:00:10:57.448
00:13:19.590 : en:00:13:19.590
00:18:11.549 : en:00:18:11.549
00:26:03.312 : en:00:26:03.312
00:29:41.238 : en:00:29:41.238
00:35:40.180 : en:00:35:40.180
00:37:23.366 : en:00:37:23.366
00:39:17.897 : en:00:39:17.897
00:44:10.106 : en:00:44:10.106
00:49:27.882 : en:00:49:27.882
00:53:37.256 : en:00:53:37.256
01:00:54.943 : en:01:00:54.943
01:07:06.481 : en:01:07:06.481
01:09:01.512 : en:01:09:01.512
01:11:19.358 : en:01:11:19.358
01:13:58.809 : en:01:13:58.809
01:16:16.363 : en:01:16:16.363
01:19:31.558 : en:01:19:31.558
01:23:19.620 : en:01:23:19.620
01:28:09.576 : en:01:28:09.576
01:35:07.493 : en:01:35:07.493
01:39:14.073 : en:01:39:14.073
01:44:31.223 : en:01:44:31.223





Jesus Christ Superstar (1973)


Jesus Christ Superstar (1973)


Jesus Christ Superstar (1973)


Jesus Christ Superstar (1973)


Jesus Christ Superstar (1973)