Tags
Language
Tags

Green Room (2015)

Posted By: NaVi7
Green Room (2015)

Green Room (2015)
BDRip 1080p | MKV / AVC@10 Mb/s | 1920x802 | 1h 35mn | 7.65 GB
Italian: DTS, 1509 kb/s (6 ch) | Subtitles: Italian
Genre: Crime | Horror | Thriller

Gli Ain't Rights, una band punk composta da quattro musicisti, sono impegnati nelle ultime tappe di un tour fallimentare quando trovano più di quanto si aspettassero da un concerto organizzato all'ultimo minuto in un luogo isolato nel selvaggio Oregon. Dopo aver assistito alla scena di un delitto, i quattro sono intrappolati in una stanza del backstage in preda a una gang di spietati suprematisti bianchi, intenzionati a eliminare tutti i testimoni. Aggrappandosi alle loro uniche forze e all'ingegno, si riveleranno essere un gruppo molto eterogeneo in grado di lottare per la propria sopravvivenza.

IMDB - 8 wins & 13 nominations.



General
Unique ID : 190271462691945792054999959692584456871 (0x8F24F364C01445B8B73A1FE3F14C92A7)
Complete name : A:\Green.Room.2015.Bluray.1080p.iTA-DDN.mkv
Format : Matroska
Format version : Version 4 / Version 2
File size : 7.65 GiB
Duration : 1 h 35 min
Overall bit rate : 11.5 Mb/s
Encoded date : UTC 2017-02-19 20:41:46
Writing application : mkvmerge v8.3.0 ('Over the Horizon') 64bit
Writing library : libebml v1.3.1 + libmatroska v1.4.2

Video
ID : 1
Format : AVC
Format/Info : Advanced Video Codec
Format profile : High@L4.1
Format settings, CABAC : Yes
Format settings, ReFrames : 5 frames
Codec ID : V_MPEG4/ISO/AVC
Duration : 1 h 35 min
Bit rate : 10.0 Mb/s
Width : 1 920 pixels
Height : 802 pixels
Display aspect ratio : 2.40:1
Frame rate mode : Constant
Frame rate : 24.000 FPS
Color space : YUV
Chroma subsampling : 4:2:0
Bit depth : 8 bits
Scan type : Progressive
Bits/(Pixel*Frame) : 0.271
Stream size : 6.65 GiB (87%)
Writing library : x264 core 148 r2705+54 9f484c1 t_mod_Custom [8-bit@all X86_64]
Encoding settings : cabac=1 / ref=5 / deblock=1:-2:-2 / analyse=0x3:0x133 / me=hex / subme=7 / psy=1 / fade_compensate=0.00 / psy_rd=1.05:0.00 / mixed_ref=1 / me_range=16 / chroma_me=1 / trellis=2 / 8x8dct=1 / cqm=0 / deadzone=21,11 / fast_pskip=0 / chroma_qp_offset=-2 / threads=18 / lookahead_threads=4 / sliced_threads=0 / nr=0 / decimate=1 / interlaced=0 / bluray_compat=0 / constrained_intra=0 / fgo=0 / bframes=4 / b_pyramid=2 / b_adapt=2 / b_bias=0 / direct=3 / weightb=1 / open_gop=0 / weightp=2 / keyint=240 / keyint_min=24 / scenecut=40 / intra_refresh=0 / rc_lookahead=40 / rc=2pass / mbtree=0 / bitrate=10012 / ratetol=1.0 / qcomp=0.70 / qpmin=0:0:0 / qpmax=69:69:69 / qpstep=4 / cplxblur=20.0 / qblur=0.5 / vbv_maxrate=50000 / vbv_bufsize=50000 / nal_hrd=none / filler=0 / ip_ratio=1.40 / pb_ratio=1.30 / aq=1:0.70 / aq-sensitivity=10.00 / aq-factor=1.00:1.00:1.00 / aq2=0 / aq3=0
Language : English
Default : Yes
Forced : No

Audio
ID : 2
Format : DTS
Format/Info : Digital Theater Systems
Mode : 16
Format settings, Endianness : Big
Codec ID : A_DTS
Duration : 1 h 35 min
Bit rate mode : Constant
Bit rate : 1 509 kb/s
Channel(s) : 6 channels
Channel positions : Front: L C R, Side: L R, LFE
Sampling rate : 48.0 kHz
Frame rate : 93.750 FPS (512 spf)
Bit depth : 24 bits
Compression mode : Lossy
Stream size : 1.00 GiB (13%)
Title : DTS iTA
Language : Italian
Default : Yes
Forced : No

Text #1
ID : 3
Format : UTF-8
Codec ID : S_TEXT/UTF8
Codec ID/Info : UTF-8 Plain Text
Duration : 1 h 19 min
Bit rate : 0 b/s
Count of elements : 5
Stream size : 100 Bytes (0%)
Title : FORCED iTA
Language : Italian
Default : Yes
Forced : Yes

Text #2
ID : 4
Format : UTF-8
Codec ID : S_TEXT/UTF8
Codec ID/Info : UTF-8 Plain Text
Duration : 1 h 26 min
Bit rate : 47 b/s
Count of elements : 1040
Stream size : 30.0 KiB (0%)
Title : REGULAR iTA
Language : Italian
Default : No
Forced : No

Menu
00:00:00.000 : en:00:00:00.000
00:08:07.625 : en:00:08:07.625
00:14:14.292 : en:00:14:14.292
00:22:47.417 : en:00:22:47.417
00:32:23.917 : en:00:32:23.917
00:37:49.792 : en:00:37:49.792
00:47:04.042 : en:00:47:04.042
00:55:55.125 : en:00:55:55.125
01:03:54.958 : en:01:03:54.958
01:10:24.875 : en:01:10:24.875
01:17:19.625 : en:01:17:19.625
01:22:31.292 : en:01:22:31.292




Screenshots

Green Room (2015)

Green Room (2015)

Green Room (2015)