Tags
Language
Tags
December 2022
Su Mo Tu We Th Fr Sa
27 28 29 30 1 2 3
4 5 6 7 8 9 10
11 12 13 14 15 16 17
18 19 20 21 22 23 24
25 26 27 28 29 30 31

Dawn of the Planet of the Apes (2014)

Posted By: Tavaz
1080p (FullHD) / BDRip IMDb
Dawn of the Planet of the Apes (2014)

Dawn of the Planet of the Apes (2014)
BDRip | MKV | 1920x1036 | English | H265 @ 4892 kbps | DTS | 2 h 10 min | 9.11 GiB
Subtitles: English
Genre: Science Fiction, Action, Drama, Thriller

A group of scientists in San Francisco struggle to stay alive in the aftermath of a plague that is wiping out humanity, while Caesar tries to maintain dominance over his community of intelligent apes.

Dawn.of.the.Planet.of.the.Apes.2014.BluRay.10Bit.1080p.Dts-H.part1.rar (4.8 GB)
Dawn.of.the.Planet.of.the.Apes.2014.BluRay.10Bit.1080p.Dts-H.part2.rar (4.4 GB)



General
Unique ID : 181689073804207402963452792829815180707 (0x88B00AF3ADE488A6B48A92A855664DA3)
Complete name : ./7b29dd7870f344c5ae417ebc5511553d.mkv
Format : Matroska
Format version : Version 2
File size : 9.11 GiB
Duration : 2 h 10 min
Overall bit rate : 9 997 kb/s
Movie name : Dawn of the Planet of the Apes 2014 BluRay 10Bit 1080p Dts-HD Ma7.1 H265-d3g
Encoded date : UTC 2017-10-03 13:31:44
Writing application : DVDFab 10.0.6.2
Writing library : libebml v1.3.4 + libmatroska v1.4.5

Video
ID : 1
Format : HEVC
Format/Info : High Efficiency Video Coding
Format profile : Main 10@L4@Main
Codec ID : V_MPEGH/ISO/HEVC
Duration : 2 h 10 min
Bit rate : 4 893 kb/s
Width : 1 920 pixels
Height : 1 036 pixels
Display aspect ratio : 1.85:1
Frame rate mode : Constant
Frame rate : 23.976 (24000/1001) FPS
Color space : YUV
Chroma subsampling : 4:2:0
Bit depth : 10 bits
Bits/(Pixel*Frame) : 0.103
Stream size : 4.45 GiB (49%)
Default : Yes
Forced : No
Color range : Limited
Color primaries : BT.709
Transfer characteristics : BT.709
Matrix coefficients : BT.709

Audio
ID : 2
Format : DTS
Format/Info : Digital Theater Systems
Format profile : MA / ES Matrix / Core
Mode : 16
Format settings, Endianness : Big
Codec ID : A_DTS
Duration : 2 h 10 min
Bit rate mode : Variable / Constant / Constant
Bit rate : 5 102 kb/s / 1 509 kb/s / 1 509 kb/s
Channel(s) : 8 channels / 7 channels / 6 channels
Channel positions : Front: L C R, Side: L R, Back: L R, LFE / Front: L C R, Side: L R, Back: C, LFE / Front: L C R, Side: L R, LFE
Sampling rate : 48.0 kHz
Frame rate : 93.750 FPS (512 SPF)
Bit depth : 24 bits
Compression mode : Lossless / Lossy / Lossy
Stream size : 4.65 GiB (51%)
Language : English
Default : Yes
Forced : No

Text #1
ID : 3
Format : VobSub
Codec ID : S_VOBSUB
Codec ID/Info : Picture based subtitle format used on DVDs
Duration : 1 h 57 min
Bit rate : 3 866 b/s
Count of elements : 866
Stream size : 3.25 MiB (0%)
Language : English
Default : Yes
Forced : No

Text #2
ID : 4
Format : VobSub
Codec ID : S_VOBSUB
Codec ID/Info : Picture based subtitle format used on DVDs
Duration : 1 h 40 min
Bit rate : 618 b/s
Count of elements : 127
Stream size : 453 KiB (0%)
Language : English
Default : No
Forced : No

Text #3
ID : 5
Format : VobSub
Codec ID : S_VOBSUB
Codec ID/Info : Picture based subtitle format used on DVDs
Duration : 1 h 40 min
Bit rate : 618 b/s
Count of elements : 127
Stream size : 453 KiB (0%)
Language : English
Default : No
Forced : No

Menu
00:00:00.000 : en:Chapter 01
00:03:21.159 : en:Chapter 02
00:07:34.912 : en:Chapter 03
00:12:36.547 : en:Chapter 04
00:16:23.565 : en:Chapter 05
00:18:47.042 : en:Chapter 06
00:21:52.477 : en:Chapter 07
00:25:26.691 : en:Chapter 08
00:29:45.867 : en:Chapter 09
00:31:50.617 : en:Chapter 10
00:36:43.743 : en:Chapter 11
00:39:07.553 : en:Chapter 12
00:40:57.163 : en:Chapter 13
00:44:12.232 : en:Chapter 14
00:48:11.722 : en:Chapter 15
00:50:31.528 : en:Chapter 16
00:53:48.016 : en:Chapter 17
00:57:25.316 : en:Chapter 18
01:01:18.466 : en:Chapter 19
01:02:35.376 : en:Chapter 20
01:04:24.068 : en:Chapter 21
01:06:21.727 : en:Chapter 22
01:09:31.333 : en:Chapter 23
01:13:56.974 : en:Chapter 24
01:17:17.924 : en:Chapter 25
01:20:53.390 : en:Chapter 26
01:23:28.753 : en:Chapter 27
01:26:08.997 : en:Chapter 28
01:28:19.252 : en:Chapter 29
01:33:24.390 : en:Chapter 30
01:35:53.122 : en:Chapter 31
01:38:38.621 : en:Chapter 32
01:40:42.536 : en:Chapter 33
01:44:07.574 : en:Chapter 34
01:46:05.567 : en:Chapter 35
01:47:54.468 : en:Chapter 36
01:52:13.977 : en:Chapter 37
01:56:27.480 : en:Chapter 38
02:00:31.015 : en:Chapter 39
02:01:35.579 : en:Chapter 40





Dawn of the Planet of the Apes (2014)


Dawn of the Planet of the Apes (2014)


Dawn of the Planet of the Apes (2014)


Dawn of the Planet of the Apes (2014)


Dawn of the Planet of the Apes (2014)