Subcategories

VA - MOM, Vol. 3: Music For Our Mother Ocean (1999)

Posted By: delpotro
VA - MOM, Vol. 3: Music For Our Mother Ocean (1999)

VA - MOM, Vol. 3: Music For Our Mother Ocean (1999)
EAC Rip | FLAC (tracks+log+.cue) | 01:17:00 | 520 Mb
Alternative Rock | Label: Surfdog Records, Interscope Records

MOM: Music for Our Mother Ocean is a series of three compilations produced by Surfdog Records to benefit the Surfrider Foundation. The albums feature original songs as well as covers – many sharing a surfing or summer theme – by a range of popular artists.


The third benefit album for the Surfrider Foundation, an organization dedicated to preserving oceans, is as weirdly scattershot as the two other MOM albums, and just as enjoyable. As with any tribute album, MOM, Vol. 3 is certainly a collection of moments, balanced somewhere between the good and the mediocre. To its credit, the Surfrider Foundation gets major artists to deliver exclusive songs to their record. Even better, they're lucky to get first-rate music from these artists, most notably with Beck's terrific, frazzled beach party song "Electric Music and the Summer People" and Pearl Jam's strangely ambitious "The Whale Song." These, along with Snoop Dogg & Rage Against the Machine's duet on "Snoop Bounce," are the most notable new recordings, but they aren't the only worthwhile moments, either. Brian Setzer and Brian Wilson knock out an enjoyable "Little Deuce Coupe," Everclear tackles "Walk Don't Run" as if they were the Pixies, Chris Isaak's "Winter Waves" is a cool breeze of Beach Boys pop, the Beasties' "Nothing to Say" is a fun punk throwaway, and several other cuts aren't bad, either. Of course, there are a few trying moments as well – record companies should agree that alternative bands are banned from doing ironic covers of oldies (particularly, Sprung Monkey's "Coconut"), even if it is for a good cause – but they're not enough to sink the collection. The best thing about MOM, Vol. 3 is that almost all of it is exclusive material. Not counting the Butthole Surfers' remix of Jane's Addiction's "Ocean Size," Paul McCartney and James Taylor are the only ones that dig into the vaults for their contributions, but this is one case when the good intentions outweigh the end result. It's impossible to imagine most listeners grooving on every track on the album, but it's still more enjoyable than most tribute or benefit albums.
Tracklist:
1. Brian Setzer, Brian Wilson - Little Deuce Coupe (02:36)
2. Sprung Monkey - Coconut (03:26)
3. Butthole Surfers - Summer In The City (03:14)
4. Beck - Electric Music And The Summer People (03:34)
5. Snoop Dogg, Rage Against The Machine - Snoop Bounce (06:05)
6. Lisa Loeb - Summer (02:13)
7. Janes Addiction - Ocean Size (Butthole Surfers Remix) (04:23)
8. Pearl Jam - The Whale Song (03:33)
9. Allison Moorer - Here Comes The Sun (03:08)
10. Paul McCartney And Wings - Wild Life (06:39)
11. Gary Hoey - Gone Surfin (03:12)
12. Jimmy Buffett - Sea Cruise (03:05)
13. Red Hot Chili Peppers - How Strong (04:43)
14. Everclear - Walk Dont Run (02:00)
15. Ben Harper - Wicked Man (05:04)
16. Smash Mouth - Mother (03:07)
17. James Taylor - Gaia (05:24)
18. Beastie Boys - Nothing To Say (01:16)
19. JKay - Sunland (04:33)
20. Lit - Money (02:58)
21. Chris Isaak - Winter Waves (02:47)

Exact Audio Copy V0.99 prebeta 4 from 23. January 2008

EAC extraction logfile from 3. October 2008, 22:06

Various / MOM 3 - Music For Our Mother Ocean

Used drive : HL-DT-STDVDRAM GH20NS10 Adapter: 3 ID: 0

Read mode : Secure
Utilize accurate stream : Yes
Defeat audio cache : Yes
Make use of C2 pointers : No

Read offset correction : 667
Overread into Lead-In and Lead-Out : No
Fill up missing offset samples with silence : Yes
Delete leading and trailing silent blocks : No
Null samples used in CRC calculations : Yes
Used interface : Native Win32 interface for Win NT & 2000
Gap handling : Appended to previous track

Used output format : User Defined Encoder
Selected bitrate : 768 kBit/s
Quality : High
Add ID3 tag : No
Command line compressor : C:\Program Files\FLAC\flac.exe
Additional command line options : -V -8 -T "artist=%a" -T "title=%t" -T "album=%g" -T "date=%y" -T "tracknumber=%n" %s


TOC of the extracted CD

Track | Start | Length | Start sector | End sector
––––––––––––––––––––––––––––-
1 | 0:00.00 | 2:35.55 | 0 | 11679
2 | 2:35.55 | 3:25.47 | 11680 | 27101
3 | 6:01.27 | 3:13.70 | 27102 | 41646
4 | 9:15.22 | 3:34.08 | 41647 | 57704
5 | 12:49.30 | 6:04.70 | 57705 | 85074
6 | 18:54.25 | 2:12.70 | 85075 | 95044
7 | 21:07.20 | 4:22.62 | 95045 | 114756
8 | 25:30.07 | 3:33.30 | 114757 | 130761
9 | 29:03.37 | 3:08.30 | 130762 | 144891
10 | 32:11.67 | 6:39.10 | 144892 | 174826
11 | 38:51.02 | 3:12.35 | 174827 | 189261
12 | 42:03.37 | 3:05.35 | 189262 | 203171
13 | 45:08.72 | 4:42.38 | 203172 | 224359
14 | 49:51.35 | 1:59.70 | 224360 | 233354
15 | 51:51.30 | 5:04.12 | 233355 | 256166
16 | 56:55.42 | 3:06.65 | 256167 | 270181
17 | 60:02.32 | 5:24.00 | 270182 | 294481
18 | 65:26.32 | 1:16.15 | 294482 | 300196
19 | 66:42.47 | 4:32.73 | 300197 | 320669
20 | 71:15.45 | 2:57.67 | 320670 | 334011
21 | 74:13.37 | 2:46.45 | 334012 | 346506


Track 1

Filename C:\Hi there RIAA, What's up IFPI\Various Artists - MOM 3 - Music For Our Mother Ocean\01 - Little Deuce Coupe.wav

Pre-gap length 0:00:02.00

Peak level 94.4 %
Track quality 99.9 %
Test CRC 1A1AFF42
Copy CRC 1A1AFF42
Track not present in AccurateRip database
Copy OK

Track 2

Filename C:\Hi there RIAA, What's up IFPI\Various Artists - MOM 3 - Music For Our Mother Ocean\02 - Coconut.wav

Peak level 94.4 %
Track quality 100.0 %
Test CRC D1E851B6
Copy CRC D1E851B6
Track not present in AccurateRip database
Copy OK

Track 3

Filename C:\Hi there RIAA, What's up IFPI\Various Artists - MOM 3 - Music For Our Mother Ocean\03 - Summer In The City.wav

Peak level 94.4 %
Track quality 99.9 %
Test CRC 77615EFF
Copy CRC 77615EFF
Track not present in AccurateRip database
Copy OK

Track 4

Filename C:\Hi there RIAA, What's up IFPI\Various Artists - MOM 3 - Music For Our Mother Ocean\04 - Electric Music And The Summer People.wav

Peak level 99.9 %
Track quality 100.0 %
Test CRC 1623537C
Copy CRC 1623537C
Track not present in AccurateRip database
Copy OK

Track 5

Filename C:\Hi there RIAA, What's up IFPI\Various Artists - MOM 3 - Music For Our Mother Ocean\05 - Snoop Bounce.wav

Peak level 99.8 %
Track quality 99.9 %
Test CRC E1A66ACF
Copy CRC E1A66ACF
Track not present in AccurateRip database
Copy OK

Track 6

Filename C:\Hi there RIAA, What's up IFPI\Various Artists - MOM 3 - Music For Our Mother Ocean\06 - Summer.wav

Peak level 94.4 %
Track quality 100.0 %
Test CRC CFFE6E7F
Copy CRC CFFE6E7F
Track not present in AccurateRip database
Copy OK

Track 7

Filename C:\Hi there RIAA, What's up IFPI\Various Artists - MOM 3 - Music For Our Mother Ocean\07 - Ocean Size (Butthole Surfers' Remix).wav

Peak level 94.4 %
Track quality 100.0 %
Test CRC 15B361B9
Copy CRC 15B361B9
Track not present in AccurateRip database
Copy OK

Track 8

Filename C:\Hi there RIAA, What's up IFPI\Various Artists - MOM 3 - Music For Our Mother Ocean\08 - The Whale Song.wav

Peak level 94.4 %
Track quality 100.0 %
Test CRC AFF91339
Copy CRC AFF91339
Track not present in AccurateRip database
Copy OK

Track 9

Filename C:\Hi there RIAA, What's up IFPI\Various Artists - MOM 3 - Music For Our Mother Ocean\09 - Here Comes The Sun.wav

Peak level 94.4 %
Track quality 100.0 %
Test CRC 3CC69F34
Copy CRC 3CC69F34
Track not present in AccurateRip database
Copy OK

Track 10

Filename C:\Hi there RIAA, What's up IFPI\Various Artists - MOM 3 - Music For Our Mother Ocean\10 - Wild Life.wav

Peak level 92.4 %
Track quality 99.9 %
Test CRC F62BDDB9
Copy CRC F62BDDB9
Track not present in AccurateRip database
Copy OK

Track 11

Filename C:\Hi there RIAA, What's up IFPI\Various Artists - MOM 3 - Music For Our Mother Ocean\11 - Gone Surfin'.wav

Peak level 100.0 %
Track quality 100.0 %
Test CRC F1E2F6C4
Copy CRC F1E2F6C4
Track not present in AccurateRip database
Copy OK

Track 12

Filename C:\Hi there RIAA, What's up IFPI\Various Artists - MOM 3 - Music For Our Mother Ocean\12 - Sea Cruise.wav

Peak level 94.4 %
Track quality 100.0 %
Test CRC 1BF3A8D8
Copy CRC 1BF3A8D8
Track not present in AccurateRip database
Copy OK

Track 13

Filename C:\Hi there RIAA, What's up IFPI\Various Artists - MOM 3 - Music For Our Mother Ocean\13 - How Strong.wav

Peak level 94.4 %
Track quality 100.0 %
Test CRC 02566A96
Copy CRC 02566A96
Track not present in AccurateRip database
Copy OK

Track 14

Filename C:\Hi there RIAA, What's up IFPI\Various Artists - MOM 3 - Music For Our Mother Ocean\14 - Walk Don't Run.wav

Peak level 94.4 %
Track quality 100.0 %
Test CRC C00AC50C
Copy CRC C00AC50C
Track not present in AccurateRip database
Copy OK

Track 15

Filename C:\Hi there RIAA, What's up IFPI\Various Artists - MOM 3 - Music For Our Mother Ocean\15 - Wicked Man.wav

Peak level 94.4 %
Track quality 99.9 %
Test CRC 30025175
Copy CRC 30025175
Track not present in AccurateRip database
Copy OK

Track 16

Filename C:\Hi there RIAA, What's up IFPI\Various Artists - MOM 3 - Music For Our Mother Ocean\16 - Mother.wav

Peak level 94.4 %
Track quality 100.0 %
Test CRC AF7F66A9
Copy CRC AF7F66A9
Track not present in AccurateRip database
Copy OK

Track 17

Filename C:\Hi there RIAA, What's up IFPI\Various Artists - MOM 3 - Music For Our Mother Ocean\17 - Gaia.wav

Peak level 99.8 %
Track quality 100.0 %
Test CRC BD6FEB85
Copy CRC BD6FEB85
Track not present in AccurateRip database
Copy OK

Track 18

Filename C:\Hi there RIAA, What's up IFPI\Various Artists - MOM 3 - Music For Our Mother Ocean\18 - Nothing To Say.wav

Peak level 94.4 %
Track quality 100.0 %
Test CRC 7E15548A
Copy CRC 7E15548A
Track not present in AccurateRip database
Copy OK

Track 19

Filename C:\Hi there RIAA, What's up IFPI\Various Artists - MOM 3 - Music For Our Mother Ocean\19 - Sunland.wav

Peak level 94.4 %
Track quality 100.0 %
Test CRC 3DF1554F
Copy CRC 3DF1554F
Track not present in AccurateRip database
Copy OK

Track 20

Filename C:\Hi there RIAA, What's up IFPI\Various Artists - MOM 3 - Music For Our Mother Ocean\20 - Money.wav

Peak level 94.4 %
Track quality 100.0 %
Test CRC 6834E690
Copy CRC 6834E690
Track not present in AccurateRip database
Copy OK

Track 21

Filename C:\Hi there RIAA, What's up IFPI\Various Artists - MOM 3 - Music For Our Mother Ocean\21 - Winter Waves.wav

Peak level 94.4 %
Track quality 100.0 %
Test CRC 773CE26A
Copy CRC 773CE26A
Track not present in AccurateRip database
Copy OK


None of the tracks are present in the AccurateRip database

No errors occurred

End of status report

Thanks to the Original ripper Creator !