Tags
Language
Tags

Lou Reed - New York (Deluxe Edition) (1989/2020)

Posted By: delpotro
Lou Reed - New York (Deluxe Edition) (1989/2020)

Lou Reed - New York (Deluxe Edition) (1989/2020)
EAC Rip | FLAC (tracks+log+.cue) - 1 Gb | Covers - 126 Mb | 02:54:42
Rock | Label: Warner Records, Rhino Entertainment

This 3CD/DVD/2LP Deluxe Edition of the legendary artist’s Sire Records debut features newly remastered sound, unreleased studio and live tracks, plus the DVD debut of “The New York Album” concert video. This limited edition and exclusive bundle also comes with a cassette version of the New York album.

Lou Reed struck a chord with critics and fans alike more than 30 years ago with New York, his Sire Records debut and 15th solo studio album overall. Its raw sound and evocative lyrics would go on to earn the legendary singer-songwriter-poet a gold record, a Grammy® nomination, and a #1 hit on the Modern Rock charts with “Dirty Blvd.”

Rhino explores this gritty classic on an expansive collection that includes a newly remastered version of the original 1989 album on CD and – for the first time – on double 180-gram audiophile vinyl. The set also includes 26 unreleased studio and live recordings of album tracks from the Lou Reed Archive, as well as the DVD-debut of “The New York Album,” a long-out-of-print concert video recorded during the New York tour. In addition, audio from the set will be available through digital and streaming services.

New York captures Reed in exceptional form and is packed with incredible songs like “Busload Of Faith,” “Halloween Parade” and “Dirty Blvd.” The entire album has been remastered for the first time ever for this collection. The second disc presents unreleased live versions from the Lou Reed Archive of every album track compiled from multiple performances. To avoid duplication, none of these live tracks were taken from the set’s accompanying DVD.

The third disc showcases unreleased early versions of several album tracks from the Lou Reed Archive, including “Last Great American Whale,” “Sick Of You” and “Dirty Blvd.” Also featured is the non-LP track “The Room,” as well as live versions of “Sweet Jane,” a song Reed originally recorded with The Velvet Underground, and “Walk On The Wild Side,” from his second solo album, Transformer (1972.)

This set also includes “The New York Album,” a concert video that was originally released in 1990 on VHS and Laserdisc. It has never been available on DVD, until now. It features Reed performing the entire New York album live in Montreal at the Theatre St. Denis. The DVD concludes with an audio-only interview with Reed.
Tracklist:
Disc 1 (56:48)
1. Romeo Had Juliette (2020 Remaster) (03:09)
2. Halloween Parade (2020 Remaster) (03:33)
3. Dirty Blvd. (2020 Remaster) (03:29)
4. Endless Cycle (2020 Remaster) (04:02)
5. There Is No Time (2020 Remaster) (03:46)
6. Last Great American Whale (2020 Remaster) (03:42)
7. Beginning of a Great Adventure (2020 Remaster) (05:00)
8. Busload of Faith (2020 Remaster) (04:49)
9. Sick of You (2020 Remaster) (03:25)
10. Hold On (2020 Remaster) (03:24)
11. Good Evening Mr. Waldeheim (2020 Remaster) (04:36)
12. Xmas in February (2020 Remaster) (02:57)
13. Strawman (2020 Remaster) (05:53)
14. Dime Store Mystery (2020 Remaster) (05:03)

Disc 2 (01:10:56)
1. Romeo Had Juliette (Live at Warner Theatre, Washington, DC, 3/14/1989) (04:43)
2. Halloween Parade (Live at Joseph Meyerhoff Symphony Hall, Baltimore, MD, 3/16/1989) (04:51)
3. Dirty Blvd. (Live at Wembley Arena, London, UK, 7/14/1989) (04:18)
4. Endless Cycle (Live at the Warner Theatre, Washington, DC, 3/14/1989) (04:38)
5. There Is No Time (Live at The Mosque, Richmond, VA, 8/8/1989) (05:34)
6. Last Great American Whale (Live at The Mosque, Richmond, VA, 8/8/1989) (06:04)
7. Beginning of a Great Adventure (Live at Wembley Arena, London, UK, 7/4/1989) (07:23)
8. Busload of Faith (Live at the Falconer Theatre, Copenhagen, Denmark, 6/9/1989) (05:05)
9. Sick of You (Live at the Tower Theatre, Upper Darby, PA, 3/17/1989) (05:21)
10. Hold On (Live at the Mosque, Richmond, VA, 8/8/1989) (03:34)
11. Good Evening Mr. Waldheim (Live at Joseph Meyerhoff Symphony Hall, Baltimore, MD, 3/16/1989) (04:01)
12. Xmas in February (Live at Joseph Meyerhoff Symphony Hall, Baltimore, MD, 3/16/1989) (03:42)
13. Strawman (Live at Wembley Arena, London, UK, 7/4/1989) (05:21)
14. Dime Store Mystery (Live at the Mosque, Richmond, VA, 8/8/1989) (06:21)

Disc 3 (46:41)
1. Romeo Had Juliette (Single Version) (03:07)
2. Dirty Blvd. (Work Tape) (01:53)
3. Dirty Blvd. (Rough Mix) (03:34)
4. Endless Cycle (Work Tape) (01:06)
5. Last Great American Whale (Work Tape) (02:09)
6. Beginning of a Great Adventure (Rough Mix) (05:01)
7. Busload of Faith (Acoustic Version) (02:39)
8. Sick of You (Work Tape) (01:26)
9. Sick of You (Rough Mix) (03:40)
10. Hold On (Rough Mix) (02:43)
11. Strawman (Rough Mix) (05:59)
12. The Room (03:37)
13. Sweet Jane (Live Encore at The Mosque, Richmond, VA, 8/8/1989) (05:50)
14. Walk on the Wild Side (Live Encore at The Mosque, Richmond, VA, 8/8/1989) (03:57)

Exact Audio Copy V1.3 from 2. September 2016

EAC extraction logfile from 20. November 2020, 18:03

Lou Reed / New York

Used drive : PLEXTOR PX-891SAF Adapter: 1 ID: 0

Read mode : Secure
Utilize accurate stream : Yes
Defeat audio cache : Yes
Make use of C2 pointers : No

Read offset correction : 6
Overread into Lead-In and Lead-Out : No
Fill up missing offset samples with silence : Yes
Delete leading and trailing silent blocks : No
Null samples used in CRC calculations : Yes
Used interface : Native Win32 interface for Win NT & 2000
Gap handling : Appended to previous track

Used output format : User Defined Encoder
Selected bitrate : 1024 kBit/s
Quality : High
Add ID3 tag : No
Command line compressor : C:\Program Files (x86)\Exact Audio Copy\Flac\flac.exe
Additional command line options : -8 -V -T "ARTIST=%artist%" -T "TITLE=%title%" -T "ALBUM=%albumtitle%" -T "DATE=%year%" -T "TRACKNUMBER=%tracknr%" -T "GENRE=%genre%" -T "PERFORMER=%albuminterpret%" -T "COMPOSER=%composer%" %haslyrics%–tag-from-file=LYRICS="%lyricsfile%"%haslyrics% -T "ALBUMARTIST=%albumartist%" -T "DISCNUMBER=%cdnumber%" -T "TOTALDISCS=%totalcds%" -T "TOTALTRACKS=%numtracks%" -T "COMMENT=%comment%" %source% -o %dest%


TOC of the extracted CD

Track | Start | Length | Start sector | End sector
––––––––––––––––––––––––––––-
1 | 0:00.00 | 3:09.68 | 0 | 14242
2 | 3:09.68 | 3:33.12 | 14243 | 30229
3 | 6:43.05 | 3:29.05 | 30230 | 45909
4 | 10:12.10 | 4:02.58 | 45910 | 64117
5 | 14:14.68 | 3:46.15 | 64118 | 81082
6 | 18:01.08 | 3:42.03 | 81083 | 97735
7 | 21:43.11 | 5:00.72 | 97736 | 120307
8 | 26:44.08 | 4:49.73 | 120308 | 142055
9 | 31:34.06 | 3:25.53 | 142056 | 157483
10 | 34:59.59 | 3:24.48 | 157484 | 172831
11 | 38:24.32 | 4:36.20 | 172832 | 193551
12 | 43:00.52 | 2:57.21 | 193552 | 206847
13 | 45:57.73 | 5:53.68 | 206848 | 233390
14 | 51:51.66 | 5:03.40 | 233391 | 256155


Track 1

Filename D:\#cdr\#wav+flac\#Add\Lou Reed - New York\cd 1\01. Lou Reed - Romeo Had Juliette.wav

Pre-gap length 0:00:02.00

Peak level 87.9 %
Extraction speed 4.0 X
Track quality 99.9 %
Test CRC FEF8554D
Copy CRC FEF8554D
Accurately ripped (confidence 3) [17BB445E] (AR v2)
Copy OK

Track 2

Filename D:\#cdr\#wav+flac\#Add\Lou Reed - New York\cd 1\02. Lou Reed - Halloween Parade.wav

Peak level 84.6 %
Extraction speed 5.3 X
Track quality 100.0 %
Test CRC 0F12F125
Copy CRC 0F12F125
Accurately ripped (confidence 3) [DC4E1904] (AR v2)
Copy OK

Track 3

Filename D:\#cdr\#wav+flac\#Add\Lou Reed - New York\cd 1\03. Lou Reed - Dirty Blvd..wav

Peak level 98.9 %
Extraction speed 5.8 X
Track quality 100.0 %
Test CRC 6F5214F9
Copy CRC 6F5214F9
Accurately ripped (confidence 3) [B28522A0] (AR v2)
Copy OK

Track 4

Filename D:\#cdr\#wav+flac\#Add\Lou Reed - New York\cd 1\04. Lou Reed - Endless Cycle.wav

Peak level 86.8 %
Extraction speed 6.4 X
Track quality 100.0 %
Test CRC E53C6E7F
Copy CRC E53C6E7F
Accurately ripped (confidence 3) [79D86718] (AR v2)
Copy OK

Track 5

Filename D:\#cdr\#wav+flac\#Add\Lou Reed - New York\cd 1\05. Lou Reed - There Is No Time.wav

Peak level 93.6 %
Extraction speed 6.8 X
Track quality 100.0 %
Test CRC C1A6ACA8
Copy CRC C1A6ACA8
Accurately ripped (confidence 3) [F8E827E4] (AR v2)
Copy OK

Track 6

Filename D:\#cdr\#wav+flac\#Add\Lou Reed - New York\cd 1\06. Lou Reed - Last Great American Whale.wav

Peak level 91.1 %
Extraction speed 7.1 X
Track quality 100.0 %
Test CRC A04BA48E
Copy CRC A04BA48E
Accurately ripped (confidence 3) [8DE7D5D9] (AR v2)
Copy OK

Track 7

Filename D:\#cdr\#wav+flac\#Add\Lou Reed - New York\cd 1\07. Lou Reed - Beginning Of A Great Adventure.wav

Peak level 84.1 %
Extraction speed 7.8 X
Track quality 100.0 %
Test CRC 15BF84D4
Copy CRC 15BF84D4
Accurately ripped (confidence 3) [D469B6A5] (AR v2)
Copy OK

Track 8

Filename D:\#cdr\#wav+flac\#Add\Lou Reed - New York\cd 1\08. Lou Reed - Busload Of Faith.wav

Peak level 96.7 %
Extraction speed 8.2 X
Track quality 100.0 %
Test CRC 5891BC6D
Copy CRC 5891BC6D
Accurately ripped (confidence 3) [3F233FD1] (AR v2)
Copy OK

Track 9

Filename D:\#cdr\#wav+flac\#Add\Lou Reed - New York\cd 1\09. Lou Reed - Sick Of You.wav

Peak level 86.4 %
Extraction speed 8.3 X
Track quality 100.0 %
Test CRC 9A1E7D1D
Copy CRC 9A1E7D1D
Accurately ripped (confidence 3) [CD741DFD] (AR v2)
Copy OK

Track 10

Filename D:\#cdr\#wav+flac\#Add\Lou Reed - New York\cd 1\10. Lou Reed - Hold On.wav

Peak level 91.0 %
Extraction speed 8.4 X
Track quality 100.0 %
Test CRC 8BEAE75A
Copy CRC 8BEAE75A
Accurately ripped (confidence 3) [D9EAFFD6] (AR v2)
Copy OK

Track 11

Filename D:\#cdr\#wav+flac\#Add\Lou Reed - New York\cd 1\11. Lou Reed - Good Evening Mr. Waldheim.wav

Peak level 88.6 %
Extraction speed 9.1 X
Track quality 100.0 %
Test CRC AE2BE696
Copy CRC AE2BE696
Accurately ripped (confidence 3) [F3F99DBB] (AR v2)
Copy OK

Track 12

Filename D:\#cdr\#wav+flac\#Add\Lou Reed - New York\cd 1\12. Lou Reed - Xmas In February.wav

Peak level 73.9 %
Extraction speed 6.9 X
Track quality 99.9 %
Test CRC 6CE73C21
Copy CRC 6CE73C21
Accurately ripped (confidence 3) [E36E85A7] (AR v2)
Copy OK

Track 13

Filename D:\#cdr\#wav+flac\#Add\Lou Reed - New York\cd 1\13. Lou Reed - Strawman.wav

Peak level 94.6 %
Extraction speed 8.5 X
Track quality 99.9 %
Test CRC 77A1BC20
Copy CRC 77A1BC20
Accurately ripped (confidence 3) [6D9B3696] (AR v2)
Copy OK

Track 14

Filename D:\#cdr\#wav+flac\#Add\Lou Reed - New York\cd 1\14. Lou Reed - Dime Store Mystery.wav

Peak level 90.9 %
Extraction speed 10.1 X
Track quality 100.0 %
Test CRC 21EFB485
Copy CRC 21EFB485
Accurately ripped (confidence 3) [3678C9C7] (AR v2)
Copy OK


All tracks accurately ripped

No errors occurred

End of status report

–– CUETools DB Plugin V2.1.6

[CTDB TOCID: QP1zvetT10WZucramBSWqU8raU8-] found
Submit result: QP1zvetT10WZucramBSWqU8raU8- has been confirmed
Track | CTDB Status
1 | (20/20) Accurately ripped
2 | (20/20) Accurately ripped
3 | (20/20) Accurately ripped
4 | (20/20) Accurately ripped
5 | (20/20) Accurately ripped
6 | (20/20) Accurately ripped
7 | (20/20) Accurately ripped
8 | (20/20) Accurately ripped
9 | (20/20) Accurately ripped
10 | (20/20) Accurately ripped
11 | (20/20) Accurately ripped
12 | (20/20) Accurately ripped
13 | (20/20) Accurately ripped
14 | (20/20) Accurately ripped


==== Log checksum 35D06351BC8C6DC78596239B256D638DD3BBCA69BAA0C044C589BFD41D2F5748 ====

––––––––––––––––––––––––––––––

Exact Audio Copy V1.3 from 2. September 2016

EAC extraction logfile from 20. November 2020, 18:03

Lou Reed / New York

Used drive : PLEXTOR PX-891SAF Adapter: 1 ID: 0

Read mode : Secure
Utilize accurate stream : Yes
Defeat audio cache : Yes
Make use of C2 pointers : No

Read offset correction : 6
Overread into Lead-In and Lead-Out : No
Fill up missing offset samples with silence : Yes
Delete leading and trailing silent blocks : No
Null samples used in CRC calculations : Yes
Used interface : Native Win32 interface for Win NT & 2000
Gap handling : Appended to previous track

Used output format : User Defined Encoder
Selected bitrate : 1024 kBit/s
Quality : High
Add ID3 tag : No
Command line compressor : C:\Program Files (x86)\Exact Audio Copy\Flac\flac.exe
Additional command line options : -8 -V -T "ARTIST=%artist%" -T "TITLE=%title%" -T "ALBUM=%albumtitle%" -T "DATE=%year%" -T "TRACKNUMBER=%tracknr%" -T "GENRE=%genre%" -T "PERFORMER=%albuminterpret%" -T "COMPOSER=%composer%" %haslyrics%–tag-from-file=LYRICS="%lyricsfile%"%haslyrics% -T "ALBUMARTIST=%albumartist%" -T "DISCNUMBER=%cdnumber%" -T "TOTALDISCS=%totalcds%" -T "TOTALTRACKS=%numtracks%" -T "COMMENT=%comment%" %source% -o %dest%


TOC of the extracted CD

Track | Start | Length | Start sector | End sector
––––––––––––––––––––––––––––-
1 | 0:00.00 | 3:09.68 | 0 | 14242
2 | 3:09.68 | 3:33.12 | 14243 | 30229
3 | 6:43.05 | 3:29.05 | 30230 | 45909
4 | 10:12.10 | 4:02.58 | 45910 | 64117
5 | 14:14.68 | 3:46.15 | 64118 | 81082
6 | 18:01.08 | 3:42.03 | 81083 | 97735
7 | 21:43.11 | 5:00.72 | 97736 | 120307
8 | 26:44.08 | 4:49.73 | 120308 | 142055
9 | 31:34.06 | 3:25.53 | 142056 | 157483
10 | 34:59.59 | 3:24.48 | 157484 | 172831
11 | 38:24.32 | 4:36.20 | 172832 | 193551
12 | 43:00.52 | 2:57.21 | 193552 | 206847
13 | 45:57.73 | 5:53.68 | 206848 | 233390
14 | 51:51.66 | 5:03.40 | 233391 | 256155


Track 1

Filename D:\#cdr\#wav+flac\#Add\Lou Reed - New York\cd 1\01. Lou Reed - Romeo Had Juliette.wav

Pre-gap length 0:00:02.00

Peak level 87.9 %
Extraction speed 4.0 X
Track quality 99.9 %
Test CRC FEF8554D
Copy CRC FEF8554D
Accurately ripped (confidence 3) [17BB445E] (AR v2)
Copy OK

Track 2

Filename D:\#cdr\#wav+flac\#Add\Lou Reed - New York\cd 1\02. Lou Reed - Halloween Parade.wav

Peak level 84.6 %
Extraction speed 5.3 X
Track quality 100.0 %
Test CRC 0F12F125
Copy CRC 0F12F125
Accurately ripped (confidence 3) [DC4E1904] (AR v2)
Copy OK

Track 3

Filename D:\#cdr\#wav+flac\#Add\Lou Reed - New York\cd 1\03. Lou Reed - Dirty Blvd..wav

Peak level 98.9 %
Extraction speed 5.8 X
Track quality 100.0 %
Test CRC 6F5214F9
Copy CRC 6F5214F9
Accurately ripped (confidence 3) [B28522A0] (AR v2)
Copy OK

Track 4

Filename D:\#cdr\#wav+flac\#Add\Lou Reed - New York\cd 1\04. Lou Reed - Endless Cycle.wav

Peak level 86.8 %
Extraction speed 6.4 X
Track quality 100.0 %
Test CRC E53C6E7F
Copy CRC E53C6E7F
Accurately ripped (confidence 3) [79D86718] (AR v2)
Copy OK

Track 5

Filename D:\#cdr\#wav+flac\#Add\Lou Reed - New York\cd 1\05. Lou Reed - There Is No Time.wav

Peak level 93.6 %
Extraction speed 6.8 X
Track quality 100.0 %
Test CRC C1A6ACA8
Copy CRC C1A6ACA8
Accurately ripped (confidence 3) [F8E827E4] (AR v2)
Copy OK

Track 6

Filename D:\#cdr\#wav+flac\#Add\Lou Reed - New York\cd 1\06. Lou Reed - Last Great American Whale.wav

Peak level 91.1 %
Extraction speed 7.1 X
Track quality 100.0 %
Test CRC A04BA48E
Copy CRC A04BA48E
Accurately ripped (confidence 3) [8DE7D5D9] (AR v2)
Copy OK

Track 7

Filename D:\#cdr\#wav+flac\#Add\Lou Reed - New York\cd 1\07. Lou Reed - Beginning Of A Great Adventure.wav

Peak level 84.1 %
Extraction speed 7.8 X
Track quality 100.0 %
Test CRC 15BF84D4
Copy CRC 15BF84D4
Accurately ripped (confidence 3) [D469B6A5] (AR v2)
Copy OK

Track 8

Filename D:\#cdr\#wav+flac\#Add\Lou Reed - New York\cd 1\08. Lou Reed - Busload Of Faith.wav

Peak level 96.7 %
Extraction speed 8.2 X
Track quality 100.0 %
Test CRC 5891BC6D
Copy CRC 5891BC6D
Accurately ripped (confidence 3) [3F233FD1] (AR v2)
Copy OK

Track 9

Filename D:\#cdr\#wav+flac\#Add\Lou Reed - New York\cd 1\09. Lou Reed - Sick Of You.wav

Peak level 86.4 %
Extraction speed 8.3 X
Track quality 100.0 %
Test CRC 9A1E7D1D
Copy CRC 9A1E7D1D
Accurately ripped (confidence 3) [CD741DFD] (AR v2)
Copy OK

Track 10

Filename D:\#cdr\#wav+flac\#Add\Lou Reed - New York\cd 1\10. Lou Reed - Hold On.wav

Peak level 91.0 %
Extraction speed 8.4 X
Track quality 100.0 %
Test CRC 8BEAE75A
Copy CRC 8BEAE75A
Accurately ripped (confidence 3) [D9EAFFD6] (AR v2)
Copy OK

Track 11

Filename D:\#cdr\#wav+flac\#Add\Lou Reed - New York\cd 1\11. Lou Reed - Good Evening Mr. Waldheim.wav

Peak level 88.6 %
Extraction speed 9.1 X
Track quality 100.0 %
Test CRC AE2BE696
Copy CRC AE2BE696
Accurately ripped (confidence 3) [F3F99DBB] (AR v2)
Copy OK

Track 12

Filename D:\#cdr\#wav+flac\#Add\Lou Reed - New York\cd 1\12. Lou Reed - Xmas In February.wav

Peak level 73.9 %
Extraction speed 6.9 X
Track quality 99.9 %
Test CRC 6CE73C21
Copy CRC 6CE73C21
Accurately ripped (confidence 3) [E36E85A7] (AR v2)
Copy OK

Track 13

Filename D:\#cdr\#wav+flac\#Add\Lou Reed - New York\cd 1\13. Lou Reed - Strawman.wav

Peak level 94.6 %
Extraction speed 8.5 X
Track quality 99.9 %
Test CRC 77A1BC20
Copy CRC 77A1BC20
Accurately ripped (confidence 3) [6D9B3696] (AR v2)
Copy OK

Track 14

Filename D:\#cdr\#wav+flac\#Add\Lou Reed - New York\cd 1\14. Lou Reed - Dime Store Mystery.wav

Peak level 90.9 %
Extraction speed 10.1 X
Track quality 100.0 %
Test CRC 21EFB485
Copy CRC 21EFB485
Accurately ripped (confidence 3) [3678C9C7] (AR v2)
Copy OK


All tracks accurately ripped

No errors occurred

End of status report

–– CUETools DB Plugin V2.1.6

[CTDB TOCID: QP1zvetT10WZucramBSWqU8raU8-] found
Submit result: QP1zvetT10WZucramBSWqU8raU8- has been confirmed
Track | CTDB Status
1 | (20/20) Accurately ripped
2 | (20/20) Accurately ripped
3 | (20/20) Accurately ripped
4 | (20/20) Accurately ripped
5 | (20/20) Accurately ripped
6 | (20/20) Accurately ripped
7 | (20/20) Accurately ripped
8 | (20/20) Accurately ripped
9 | (20/20) Accurately ripped
10 | (20/20) Accurately ripped
11 | (20/20) Accurately ripped
12 | (20/20) Accurately ripped
13 | (20/20) Accurately ripped
14 | (20/20) Accurately ripped


==== Log checksum 35D06351BC8C6DC78596239B256D638DD3BBCA69BAA0C044C589BFD41D2F5748 ====
Exact Audio Copy V1.3 from 2. September 2016

EAC extraction logfile from 20. November 2020, 18:25

Lou Reed / New York

Used drive : PLEXTOR PX-891SAF Adapter: 1 ID: 0

Read mode : Secure
Utilize accurate stream : Yes
Defeat audio cache : Yes
Make use of C2 pointers : No

Read offset correction : 6
Overread into Lead-In and Lead-Out : No
Fill up missing offset samples with silence : Yes
Delete leading and trailing silent blocks : No
Null samples used in CRC calculations : Yes
Used interface : Native Win32 interface for Win NT & 2000
Gap handling : Appended to previous track

Used output format : User Defined Encoder
Selected bitrate : 1024 kBit/s
Quality : High
Add ID3 tag : No
Command line compressor : C:\Program Files (x86)\Exact Audio Copy\Flac\flac.exe
Additional command line options : -8 -V -T "ARTIST=%artist%" -T "TITLE=%title%" -T "ALBUM=%albumtitle%" -T "DATE=%year%" -T "TRACKNUMBER=%tracknr%" -T "GENRE=%genre%" -T "PERFORMER=%albuminterpret%" -T "COMPOSER=%composer%" %haslyrics%–tag-from-file=LYRICS="%lyricsfile%"%haslyrics% -T "ALBUMARTIST=%albumartist%" -T "DISCNUMBER=%cdnumber%" -T "TOTALDISCS=%totalcds%" -T "TOTALTRACKS=%numtracks%" -T "COMMENT=%comment%" %source% -o %dest%


TOC of the extracted CD

Track | Start | Length | Start sector | End sector
––––––––––––––––––––––––––––-
1 | 0:00.00 | 4:43.59 | 0 | 21283
2 | 4:43.59 | 4:51.06 | 21284 | 43114
3 | 9:34.65 | 4:18.04 | 43115 | 62468
4 | 13:52.69 | 4:38.24 | 62469 | 83342
5 | 18:31.18 | 5:34.51 | 83343 | 108443
6 | 24:05.69 | 6:04.67 | 108444 | 135810
7 | 30:10.61 | 7:23.01 | 135811 | 169036
8 | 37:33.62 | 5:05.21 | 169037 | 191932
9 | 42:39.08 | 5:21.02 | 191933 | 216009
10 | 48:00.10 | 3:34.19 | 216010 | 232078
11 | 51:34.29 | 4:01.02 | 232079 | 250155
12 | 55:35.31 | 3:42.50 | 250156 | 266855
13 | 59:18.06 | 5:21.35 | 266856 | 290965
14 | 64:39.41 | 6:21.64 | 290966 | 319604


Track 1

Filename D:\#cdr\#wav+flac\#Add\Lou Reed - New York\cd 2\01. Lou Reed - Romeo Had Juliette [Live].wav

Pre-gap length 0:00:02.00

Peak level 88.3 %
Extraction speed 5.4 X
Track quality 100.0 %
Test CRC C819ED1B
Copy CRC C819ED1B
Accurately ripped (confidence 3) [87B66088] (AR v2)
Copy OK

Track 2

Filename D:\#cdr\#wav+flac\#Add\Lou Reed - New York\cd 2\02. Lou Reed - Halloween Parade [Live].wav

Peak level 86.5 %
Extraction speed 6.0 X
Track quality 100.0 %
Test CRC 8A478E3A
Copy CRC 8A478E3A
Accurately ripped (confidence 3) [430022FE] (AR v2)
Copy OK

Track 3

Filename D:\#cdr\#wav+flac\#Add\Lou Reed - New York\cd 2\03. Lou Reed - Dirty Blvd. [Live].wav

Peak level 96.4 %
Extraction speed 6.4 X
Track quality 100.0 %
Test CRC B55B1F39
Copy CRC B55B1F39
Accurately ripped (confidence 3) [A664D20F] (AR v2)
Copy OK

Track 4

Filename D:\#cdr\#wav+flac\#Add\Lou Reed - New York\cd 2\04. Lou Reed - Endless Cycle [Live].wav

Peak level 93.3 %
Extraction speed 6.9 X
Track quality 100.0 %
Test CRC 12AD98AB
Copy CRC 12AD98AB
Accurately ripped (confidence 3) [DE7B5B53] (AR v2)
Copy OK

Track 5

Filename D:\#cdr\#wav+flac\#Add\Lou Reed - New York\cd 2\05. Lou Reed - There Is No Time [Live].wav

Peak level 82.0 %
Extraction speed 7.4 X
Track quality 100.0 %
Test CRC 187F28D8
Copy CRC 187F28D8
Accurately ripped (confidence 3) [6CCDED34] (AR v2)
Copy OK

Track 6

Filename D:\#cdr\#wav+flac\#Add\Lou Reed - New York\cd 2\06. Lou Reed - Last Great American Whale [Live].wav

Peak level 87.2 %
Extraction speed 7.1 X
Track quality 99.9 %
Test CRC 28CD8B94
Copy CRC 28CD8B94
Accurately ripped (confidence 3) [DE173A7D] (AR v2)
Copy OK

Track 7

Filename D:\#cdr\#wav+flac\#Add\Lou Reed - New York\cd 2\07. Lou Reed - Beginning Of A Great Adventure [Live].wav

Peak level 92.1 %
Extraction speed 8.8 X
Track quality 100.0 %
Test CRC FABB33F6
Copy CRC FABB33F6
Accurately ripped (confidence 3) [243BF1B7] (AR v2)
Copy OK

Track 8

Filename D:\#cdr\#wav+flac\#Add\Lou Reed - New York\cd 2\08. Lou Reed - Busload Of Faith [Live].wav

Peak level 77.7 %
Extraction speed 8.9 X
Track quality 100.0 %
Test CRC 30FA098F
Copy CRC 30FA098F
Accurately ripped (confidence 3) [6918D118] (AR v2)
Copy OK

Track 9

Filename D:\#cdr\#wav+flac\#Add\Lou Reed - New York\cd 2\09. Lou Reed - Sick Of You [Live].wav

Peak level 89.0 %
Extraction speed 8.0 X
Track quality 99.9 %
Test CRC 2B2B417A
Copy CRC 2B2B417A
Accurately ripped (confidence 3) [B3A170F1] (AR v2)
Copy OK

Track 10

Filename D:\#cdr\#wav+flac\#Add\Lou Reed - New York\cd 2\10. Lou Reed - Hold On [Live].wav

Peak level 85.3 %
Extraction speed 9.2 X
Track quality 100.0 %
Test CRC 4B09D62E
Copy CRC 4B09D62E
Accurately ripped (confidence 3) [8496BE01] (AR v2)
Copy OK

Track 11

Filename D:\#cdr\#wav+flac\#Add\Lou Reed - New York\cd 2\11. Lou Reed - Good Evening Mr. Waldheim [Live].wav

Peak level 79.4 %
Extraction speed 7.8 X
Track quality 99.9 %
Test CRC 01600A3F
Copy CRC 01600A3F
Accurately ripped (confidence 3) [84F9BE17] (AR v2)
Copy OK

Track 12

Filename D:\#cdr\#wav+flac\#Add\Lou Reed - New York\cd 2\12. Lou Reed - Xmas In February [Live].wav

Peak level 84.5 %
Extraction speed 9.7 X
Track quality 100.0 %
Test CRC 2524D261
Copy CRC 2524D261
Accurately ripped (confidence 3) [3D1C13AF] (AR v2)
Copy OK

Track 13

Filename D:\#cdr\#wav+flac\#Add\Lou Reed - New York\cd 2\13. Lou Reed - Strawman [Live].wav

Peak level 94.5 %
Extraction speed 10.4 X
Track quality 100.0 %
Test CRC A21060DC
Copy CRC A21060DC
Accurately ripped (confidence 3) [7F157D4C] (AR v2)
Copy OK

Track 14

Filename D:\#cdr\#wav+flac\#Add\Lou Reed - New York\cd 2\14. Lou Reed - Dime Store Mystery [Live].wav

Peak level 88.7 %
Extraction speed 9.7 X
Track quality 99.9 %
Test CRC 651142F1
Copy CRC 651142F1
Accurately ripped (confidence 3) [8B7D4EBC] (AR v2)
Copy OK


All tracks accurately ripped

No errors occurred

End of status report

–– CUETools DB Plugin V2.1.6

[CTDB TOCID: hH7QidH419zgGaCCGOaxujzELkk-] found
Submit result: hH7QidH419zgGaCCGOaxujzELkk- has been confirmed
Track | CTDB Status
1 | (17/17) Accurately ripped
2 | (17/17) Accurately ripped
3 | (17/17) Accurately ripped
4 | (17/17) Accurately ripped
5 | (17/17) Accurately ripped
6 | (17/17) Accurately ripped
7 | (17/17) Accurately ripped
8 | (17/17) Accurately ripped
9 | (17/17) Accurately ripped
10 | (17/17) Accurately ripped
11 | (17/17) Accurately ripped
12 | (17/17) Accurately ripped
13 | (17/17) Accurately ripped
14 | (17/17) Accurately ripped


==== Log checksum 10D64ADB8DE3CA98AF3075B35E04933C0B5ECDEA86E9CF6CC88EC8291EBFC45C ====

––––––––––––––––––––––––––––––

Exact Audio Copy V1.3 from 2. September 2016

EAC extraction logfile from 20. November 2020, 18:25

Lou Reed / New York

Used drive : PLEXTOR PX-891SAF Adapter: 1 ID: 0

Read mode : Secure
Utilize accurate stream : Yes
Defeat audio cache : Yes
Make use of C2 pointers : No

Read offset correction : 6
Overread into Lead-In and Lead-Out : No
Fill up missing offset samples with silence : Yes
Delete leading and trailing silent blocks : No
Null samples used in CRC calculations : Yes
Used interface : Native Win32 interface for Win NT & 2000
Gap handling : Appended to previous track

Used output format : User Defined Encoder
Selected bitrate : 1024 kBit/s
Quality : High
Add ID3 tag : No
Command line compressor : C:\Program Files (x86)\Exact Audio Copy\Flac\flac.exe
Additional command line options : -8 -V -T "ARTIST=%artist%" -T "TITLE=%title%" -T "ALBUM=%albumtitle%" -T "DATE=%year%" -T "TRACKNUMBER=%tracknr%" -T "GENRE=%genre%" -T "PERFORMER=%albuminterpret%" -T "COMPOSER=%composer%" %haslyrics%–tag-from-file=LYRICS="%lyricsfile%"%haslyrics% -T "ALBUMARTIST=%albumartist%" -T "DISCNUMBER=%cdnumber%" -T "TOTALDISCS=%totalcds%" -T "TOTALTRACKS=%numtracks%" -T "COMMENT=%comment%" %source% -o %dest%


TOC of the extracted CD

Track | Start | Length | Start sector | End sector
––––––––––––––––––––––––––––-
1 | 0:00.00 | 4:43.59 | 0 | 21283
2 | 4:43.59 | 4:51.06 | 21284 | 43114
3 | 9:34.65 | 4:18.04 | 43115 | 62468
4 | 13:52.69 | 4:38.24 | 62469 | 83342
5 | 18:31.18 | 5:34.51 | 83343 | 108443
6 | 24:05.69 | 6:04.67 | 108444 | 135810
7 | 30:10.61 | 7:23.01 | 135811 | 169036
8 | 37:33.62 | 5:05.21 | 169037 | 191932
9 | 42:39.08 | 5:21.02 | 191933 | 216009
10 | 48:00.10 | 3:34.19 | 216010 | 232078
11 | 51:34.29 | 4:01.02 | 232079 | 250155
12 | 55:35.31 | 3:42.50 | 250156 | 266855
13 | 59:18.06 | 5:21.35 | 266856 | 290965
14 | 64:39.41 | 6:21.64 | 290966 | 319604


Track 1

Filename D:\#cdr\#wav+flac\#Add\Lou Reed - New York\cd 2\01. Lou Reed - Romeo Had Juliette [Live].wav

Pre-gap length 0:00:02.00

Peak level 88.3 %
Extraction speed 5.4 X
Track quality 100.0 %
Test CRC C819ED1B
Copy CRC C819ED1B
Accurately ripped (confidence 3) [87B66088] (AR v2)
Copy OK

Track 2

Filename D:\#cdr\#wav+flac\#Add\Lou Reed - New York\cd 2\02. Lou Reed - Halloween Parade [Live].wav

Peak level 86.5 %
Extraction speed 6.0 X
Track quality 100.0 %
Test CRC 8A478E3A
Copy CRC 8A478E3A
Accurately ripped (confidence 3) [430022FE] (AR v2)
Copy OK

Track 3

Filename D:\#cdr\#wav+flac\#Add\Lou Reed - New York\cd 2\03. Lou Reed - Dirty Blvd. [Live].wav

Peak level 96.4 %
Extraction speed 6.4 X
Track quality 100.0 %
Test CRC B55B1F39
Copy CRC B55B1F39
Accurately ripped (confidence 3) [A664D20F] (AR v2)
Copy OK

Track 4

Filename D:\#cdr\#wav+flac\#Add\Lou Reed - New York\cd 2\04. Lou Reed - Endless Cycle [Live].wav

Peak level 93.3 %
Extraction speed 6.9 X
Track quality 100.0 %
Test CRC 12AD98AB
Copy CRC 12AD98AB
Accurately ripped (confidence 3) [DE7B5B53] (AR v2)
Copy OK

Track 5

Filename D:\#cdr\#wav+flac\#Add\Lou Reed - New York\cd 2\05. Lou Reed - There Is No Time [Live].wav

Peak level 82.0 %
Extraction speed 7.4 X
Track quality 100.0 %
Test CRC 187F28D8
Copy CRC 187F28D8
Accurately ripped (confidence 3) [6CCDED34] (AR v2)
Copy OK

Track 6

Filename D:\#cdr\#wav+flac\#Add\Lou Reed - New York\cd 2\06. Lou Reed - Last Great American Whale [Live].wav

Peak level 87.2 %
Extraction speed 7.1 X
Track quality 99.9 %
Test CRC 28CD8B94
Copy CRC 28CD8B94
Accurately ripped (confidence 3) [DE173A7D] (AR v2)
Copy OK

Track 7

Filename D:\#cdr\#wav+flac\#Add\Lou Reed - New York\cd 2\07. Lou Reed - Beginning Of A Great Adventure [Live].wav

Peak level 92.1 %
Extraction speed 8.8 X
Track quality 100.0 %
Test CRC FABB33F6
Copy CRC FABB33F6
Accurately ripped (confidence 3) [243BF1B7] (AR v2)
Copy OK

Track 8

Filename D:\#cdr\#wav+flac\#Add\Lou Reed - New York\cd 2\08. Lou Reed - Busload Of Faith [Live].wav

Peak level 77.7 %
Extraction speed 8.9 X
Track quality 100.0 %
Test CRC 30FA098F
Copy CRC 30FA098F
Accurately ripped (confidence 3) [6918D118] (AR v2)
Copy OK

Track 9

Filename D:\#cdr\#wav+flac\#Add\Lou Reed - New York\cd 2\09. Lou Reed - Sick Of You [Live].wav

Peak level 89.0 %
Extraction speed 8.0 X
Track quality 99.9 %
Test CRC 2B2B417A
Copy CRC 2B2B417A
Accurately ripped (confidence 3) [B3A170F1] (AR v2)
Copy OK

Track 10

Filename D:\#cdr\#wav+flac\#Add\Lou Reed - New York\cd 2\10. Lou Reed - Hold On [Live].wav

Peak level 85.3 %
Extraction speed 9.2 X
Track quality 100.0 %
Test CRC 4B09D62E
Copy CRC 4B09D62E
Accurately ripped (confidence 3) [8496BE01] (AR v2)
Copy OK

Track 11

Filename D:\#cdr\#wav+flac\#Add\Lou Reed - New York\cd 2\11. Lou Reed - Good Evening Mr. Waldheim [Live].wav

Peak level 79.4 %
Extraction speed 7.8 X
Track quality 99.9 %
Test CRC 01600A3F
Copy CRC 01600A3F
Accurately ripped (confidence 3) [84F9BE17] (AR v2)
Copy OK

Track 12

Filename D:\#cdr\#wav+flac\#Add\Lou Reed - New York\cd 2\12. Lou Reed - Xmas In February [Live].wav

Peak level 84.5 %
Extraction speed 9.7 X
Track quality 100.0 %
Test CRC 2524D261
Copy CRC 2524D261
Accurately ripped (confidence 3) [3D1C13AF] (AR v2)
Copy OK

Track 13

Filename D:\#cdr\#wav+flac\#Add\Lou Reed - New York\cd 2\13. Lou Reed - Strawman [Live].wav

Peak level 94.5 %
Extraction speed 10.4 X
Track quality 100.0 %
Test CRC A21060DC
Copy CRC A21060DC
Accurately ripped (confidence 3) [7F157D4C] (AR v2)
Copy OK

Track 14

Filename D:\#cdr\#wav+flac\#Add\Lou Reed - New York\cd 2\14. Lou Reed - Dime Store Mystery [Live].wav

Peak level 88.7 %
Extraction speed 9.7 X
Track quality 99.9 %
Test CRC 651142F1
Copy CRC 651142F1
Accurately ripped (confidence 3) [8B7D4EBC] (AR v2)
Copy OK


All tracks accurately ripped

No errors occurred

End of status report

–– CUETools DB Plugin V2.1.6

[CTDB TOCID: hH7QidH419zgGaCCGOaxujzELkk-] found
Submit result: hH7QidH419zgGaCCGOaxujzELkk- has been confirmed
Track | CTDB Status
1 | (17/17) Accurately ripped
2 | (17/17) Accurately ripped
3 | (17/17) Accurately ripped
4 | (17/17) Accurately ripped
5 | (17/17) Accurately ripped
6 | (17/17) Accurately ripped
7 | (17/17) Accurately ripped
8 | (17/17) Accurately ripped
9 | (17/17) Accurately ripped
10 | (17/17) Accurately ripped
11 | (17/17) Accurately ripped
12 | (17/17) Accurately ripped
13 | (17/17) Accurately ripped
14 | (17/17) Accurately ripped


==== Log checksum 10D64ADB8DE3CA98AF3075B35E04933C0B5ECDEA86E9CF6CC88EC8291EBFC45C ====
Exact Audio Copy V1.3 from 2. September 2016

EAC extraction logfile from 20. November 2020, 18:41

Lou Reed / New York

Used drive : PLEXTOR PX-891SAF Adapter: 1 ID: 0

Read mode : Secure
Utilize accurate stream : Yes
Defeat audio cache : Yes
Make use of C2 pointers : No

Read offset correction : 6
Overread into Lead-In and Lead-Out : No
Fill up missing offset samples with silence : Yes
Delete leading and trailing silent blocks : No
Null samples used in CRC calculations : Yes
Used interface : Native Win32 interface for Win NT & 2000
Gap handling : Appended to previous track

Used output format : User Defined Encoder
Selected bitrate : 1024 kBit/s
Quality : High
Add ID3 tag : No
Command line compressor : C:\Program Files (x86)\Exact Audio Copy\Flac\flac.exe
Additional command line options : -8 -V -T "ARTIST=%artist%" -T "TITLE=%title%" -T "ALBUM=%albumtitle%" -T "DATE=%year%" -T "TRACKNUMBER=%tracknr%" -T "GENRE=%genre%" -T "PERFORMER=%albuminterpret%" -T "COMPOSER=%composer%" %haslyrics%–tag-from-file=LYRICS="%lyricsfile%"%haslyrics% -T "ALBUMARTIST=%albumartist%" -T "DISCNUMBER=%cdnumber%" -T "TOTALDISCS=%totalcds%" -T "TOTALTRACKS=%numtracks%" -T "COMMENT=%comment%" %source% -o %dest%


TOC of the extracted CD

Track | Start | Length | Start sector | End sector
––––––––––––––––––––––––––––-
1 | 0:00.00 | 3:07.14 | 0 | 14038
2 | 3:07.14 | 1:53.45 | 14039 | 22558
3 | 5:00.59 | 3:34.42 | 22559 | 38650
4 | 8:35.26 | 1:06.17 | 38651 | 43617
5 | 9:41.43 | 2:09.14 | 43618 | 53306
6 | 11:50.57 | 5:01.57 | 53307 | 75938
7 | 16:52.39 | 2:39.38 | 75939 | 87901
8 | 19:32.02 | 1:26.13 | 87902 | 94364
9 | 20:58.15 | 3:40.15 | 94365 | 110879
10 | 24:38.30 | 2:43.38 | 110880 | 123142
11 | 27:21.68 | 5:59.13 | 123143 | 150080
12 | 33:21.06 | 3:37.15 | 150081 | 166370
13 | 36:58.21 | 5:50.37 | 166371 | 192657
14 | 42:48.58 | 3:57.03 | 192658 | 210435


Track 1

Filename D:\#cdr\#wav+flac\#Add\Lou Reed - New York\cd 3\01. Lou Reed - Romeo Had Juliette (Single Version).wav

Pre-gap length 0:00:02.00

Peak level 99.8 %
Extraction speed 4.8 X
Track quality 100.0 %
Test CRC F207A9A5
Copy CRC F207A9A5
Accurately ripped (confidence 3) [5E094869] (AR v2)
Copy OK

Track 2

Filename D:\#cdr\#wav+flac\#Add\Lou Reed - New York\cd 3\02. Lou Reed - Dirty Blvd. (Work Tape).wav

Peak level 84.9 %
Extraction speed 4.6 X
Track quality 100.0 %
Test CRC 3D9F6241
Copy CRC 3D9F6241
Accurately ripped (confidence 3) [B34AA0EB] (AR v2)
Copy OK

Track 3

Filename D:\#cdr\#wav+flac\#Add\Lou Reed - New York\cd 3\03. Lou Reed - Dirty Blvd. (Rough Mix).wav

Peak level 84.2 %
Extraction speed 5.6 X
Track quality 100.0 %
Test CRC 485EBBFF
Copy CRC 485EBBFF
Accurately ripped (confidence 3) [AC4623B8] (AR v2)
Copy OK

Track 4

Filename D:\#cdr\#wav+flac\#Add\Lou Reed - New York\cd 3\04. Lou Reed - Endless Cycle (Work Tape).wav

Peak level 60.8 %
Extraction speed 4.5 X
Track quality 100.0 %
Test CRC 46036DA6
Copy CRC 46036DA6
Accurately ripped (confidence 3) [1B6BCADE] (AR v2)
Copy OK

Track 5

Filename D:\#cdr\#wav+flac\#Add\Lou Reed - New York\cd 3\05. Lou Reed - Last Great American Whale (Work Tape).wav

Peak level 69.4 %
Extraction speed 5.6 X
Track quality 100.0 %
Test CRC 0EDB6394
Copy CRC 0EDB6394
Accurately ripped (confidence 3) [B637B9A0] (AR v2)
Copy OK

Track 6

Filename D:\#cdr\#wav+flac\#Add\Lou Reed - New York\cd 3\06. Lou Reed - Beginning of a Great Adventure (Rough Mix).wav

Peak level 57.7 %
Extraction speed 5.9 X
Track quality 99.9 %
Test CRC 799B386B
Copy CRC 799B386B
Accurately ripped (confidence 3) [FB1A6361] (AR v2)
Copy OK

Track 7

Filename D:\#cdr\#wav+flac\#Add\Lou Reed - New York\cd 3\07. Lou Reed - Busload of Faith (Acoustic Version).wav

Peak level 79.3 %
Extraction speed 6.6 X
Track quality 100.0 %
Test CRC 6A3D9E9E
Copy CRC 6A3D9E9E
Accurately ripped (confidence 3) [74B2A5DF] (AR v2)
Copy OK

Track 8

Filename D:\#cdr\#wav+flac\#Add\Lou Reed - New York\cd 3\08. Lou Reed - Sick of You (Work Tape).wav

Peak level 76.0 %
Extraction speed 5.8 X
Track quality 100.0 %
Test CRC 39F5E9CF
Copy CRC 39F5E9CF
Accurately ripped (confidence 3) [64AAF23D] (AR v2)
Copy OK

Track 9

Filename D:\#cdr\#wav+flac\#Add\Lou Reed - New York\cd 3\09. Lou Reed - Sick of You (Rough Mix).wav

Peak level 86.3 %
Extraction speed 7.3 X
Track quality 100.0 %
Test CRC 99C54585
Copy CRC 99C54585
Accurately ripped (confidence 3) [3277426B] (AR v2)
Copy OK

Track 10

Filename D:\#cdr\#wav+flac\#Add\Lou Reed - New York\cd 3\10. Lou Reed - Hold On (Rough Mix).wav

Peak level 72.4 %
Extraction speed 7.3 X
Track quality 100.0 %
Test CRC 65C5EC9C
Copy CRC 65C5EC9C
Accurately ripped (confidence 3) [4A4E4D2B] (AR v2)
Copy OK

Track 11

Filename D:\#cdr\#wav+flac\#Add\Lou Reed - New York\cd 3\11. Lou Reed - Strawman (Rough Mix).wav

Peak level 84.0 %
Extraction speed 7.4 X
Track quality 99.9 %
Test CRC 010D2CD7
Copy CRC 010D2CD7
Accurately ripped (confidence 3) [4F42E044] (AR v2)
Copy OK

Track 12

Filename D:\#cdr\#wav+flac\#Add\Lou Reed - New York\cd 3\12. Lou Reed - The Room.wav

Peak level 77.8 %
Extraction speed 8.3 X
Track quality 100.0 %
Test CRC 028168E7
Copy CRC 028168E7
Accurately ripped (confidence 3) [087F47A8] (AR v2)
Copy OK

Track 13

Filename D:\#cdr\#wav+flac\#Add\Lou Reed - New York\cd 3\13. Lou Reed - Sweet Jane (Live Encore at The Mosque, Richmond, VA, 8,8,1989).wav

Peak level 83.0 %
Extraction speed 9.2 X
Track quality 100.0 %
Test CRC 9E3C82D2
Copy CRC 9E3C82D2
Accurately ripped (confidence 3) [2CC15C6E] (AR v2)
Copy OK

Track 14

Filename D:\#cdr\#wav+flac\#Add\Lou Reed - New York\cd 3\14. Lou Reed - Walk on the Wild Side (Live Encore at The Mosque, Richmond, VA, 8,8,1989).wav

Peak level 82.4 %
Extraction speed 7.6 X
Track quality 99.9 %
Test CRC 98F3B453
Copy CRC 98F3B453
Accurately ripped (confidence 3) [6B7EDE8C] (AR v2)
Copy OK


All tracks accurately ripped

No errors occurred

End of status report

–– CUETools DB Plugin V2.1.6

[CTDB TOCID: dpXfNCzN4jSPwPemBo9OYYox2I4-] found
Submit result: dpXfNCzN4jSPwPemBo9OYYox2I4- has been confirmed
Track | CTDB Status
1 | (16/16) Accurately ripped
2 | (16/16) Accurately ripped
3 | (16/16) Accurately ripped
4 | (16/16) Accurately ripped
5 | (16/16) Accurately ripped
6 | (16/16) Accurately ripped
7 | (16/16) Accurately ripped
8 | (16/16) Accurately ripped
9 | (16/16) Accurately ripped
10 | (16/16) Accurately ripped
11 | (16/16) Accurately ripped
12 | (16/16) Accurately ripped
13 | (16/16) Accurately ripped
14 | (16/16) Accurately ripped


==== Log checksum 1CC379C7F9CF99AEE911FF7938C0B73E4ADF30A2D6A212E24BCA4A078056EC99 ====

––––––––––––––––––––––––––––––

Exact Audio Copy V1.3 from 2. September 2016

EAC extraction logfile from 20. November 2020, 18:41

Lou Reed / New York

Used drive : PLEXTOR PX-891SAF Adapter: 1 ID: 0

Read mode : Secure
Utilize accurate stream : Yes
Defeat audio cache : Yes
Make use of C2 pointers : No

Read offset correction : 6
Overread into Lead-In and Lead-Out : No
Fill up missing offset samples with silence : Yes
Delete leading and trailing silent blocks : No
Null samples used in CRC calculations : Yes
Used interface : Native Win32 interface for Win NT & 2000
Gap handling : Appended to previous track

Used output format : User Defined Encoder
Selected bitrate : 1024 kBit/s
Quality : High
Add ID3 tag : No
Command line compressor : C:\Program Files (x86)\Exact Audio Copy\Flac\flac.exe
Additional command line options : -8 -V -T "ARTIST=%artist%" -T "TITLE=%title%" -T "ALBUM=%albumtitle%" -T "DATE=%year%" -T "TRACKNUMBER=%tracknr%" -T "GENRE=%genre%" -T "PERFORMER=%albuminterpret%" -T "COMPOSER=%composer%" %haslyrics%–tag-from-file=LYRICS="%lyricsfile%"%haslyrics% -T "ALBUMARTIST=%albumartist%" -T "DISCNUMBER=%cdnumber%" -T "TOTALDISCS=%totalcds%" -T "TOTALTRACKS=%numtracks%" -T "COMMENT=%comment%" %source% -o %dest%


TOC of the extracted CD

Track | Start | Length | Start sector | End sector
––––––––––––––––––––––––––––-
1 | 0:00.00 | 3:07.14 | 0 | 14038
2 | 3:07.14 | 1:53.45 | 14039 | 22558
3 | 5:00.59 | 3:34.42 | 22559 | 38650
4 | 8:35.26 | 1:06.17 | 38651 | 43617
5 | 9:41.43 | 2:09.14 | 43618 | 53306
6 | 11:50.57 | 5:01.57 | 53307 | 75938
7 | 16:52.39 | 2:39.38 | 75939 | 87901
8 | 19:32.02 | 1:26.13 | 87902 | 94364
9 | 20:58.15 | 3:40.15 | 94365 | 110879
10 | 24:38.30 | 2:43.38 | 110880 | 123142
11 | 27:21.68 | 5:59.13 | 123143 | 150080
12 | 33:21.06 | 3:37.15 | 150081 | 166370
13 | 36:58.21 | 5:50.37 | 166371 | 192657
14 | 42:48.58 | 3:57.03 | 192658 | 210435


Track 1

Filename D:\#cdr\#wav+flac\#Add\Lou Reed - New York\cd 3\01. Lou Reed - Romeo Had Juliette (Single Version).wav

Pre-gap length 0:00:02.00

Peak level 99.8 %
Extraction speed 4.8 X
Track quality 100.0 %
Test CRC F207A9A5
Copy CRC F207A9A5
Accurately ripped (confidence 3) [5E094869] (AR v2)
Copy OK

Track 2

Filename D:\#cdr\#wav+flac\#Add\Lou Reed - New York\cd 3\02. Lou Reed - Dirty Blvd. (Work Tape).wav

Peak level 84.9 %
Extraction speed 4.6 X
Track quality 100.0 %
Test CRC 3D9F6241
Copy CRC 3D9F6241
Accurately ripped (confidence 3) [B34AA0EB] (AR v2)
Copy OK

Track 3

Filename D:\#cdr\#wav+flac\#Add\Lou Reed - New York\cd 3\03. Lou Reed - Dirty Blvd. (Rough Mix).wav

Peak level 84.2 %
Extraction speed 5.6 X
Track quality 100.0 %
Test CRC 485EBBFF
Copy CRC 485EBBFF
Accurately ripped (confidence 3) [AC4623B8] (AR v2)
Copy OK

Track 4

Filename D:\#cdr\#wav+flac\#Add\Lou Reed - New York\cd 3\04. Lou Reed - Endless Cycle (Work Tape).wav

Peak level 60.8 %
Extraction speed 4.5 X
Track quality 100.0 %
Test CRC 46036DA6
Copy CRC 46036DA6
Accurately ripped (confidence 3) [1B6BCADE] (AR v2)
Copy OK

Track 5

Filename D:\#cdr\#wav+flac\#Add\Lou Reed - New York\cd 3\05. Lou Reed - Last Great American Whale (Work Tape).wav

Peak level 69.4 %
Extraction speed 5.6 X
Track quality 100.0 %
Test CRC 0EDB6394
Copy CRC 0EDB6394
Accurately ripped (confidence 3) [B637B9A0] (AR v2)
Copy OK

Track 6

Filename D:\#cdr\#wav+flac\#Add\Lou Reed - New York\cd 3\06. Lou Reed - Beginning of a Great Adventure (Rough Mix).wav

Peak level 57.7 %
Extraction speed 5.9 X
Track quality 99.9 %
Test CRC 799B386B
Copy CRC 799B386B
Accurately ripped (confidence 3) [FB1A6361] (AR v2)
Copy OK

Track 7

Filename D:\#cdr\#wav+flac\#Add\Lou Reed - New York\cd 3\07. Lou Reed - Busload of Faith (Acoustic Version).wav

Peak level 79.3 %
Extraction speed 6.6 X
Track quality 100.0 %
Test CRC 6A3D9E9E
Copy CRC 6A3D9E9E
Accurately ripped (confidence 3) [74B2A5DF] (AR v2)
Copy OK

Track 8

Filename D:\#cdr\#wav+flac\#Add\Lou Reed - New York\cd 3\08. Lou Reed - Sick of You (Work Tape).wav

Peak level 76.0 %
Extraction speed 5.8 X
Track quality 100.0 %
Test CRC 39F5E9CF
Copy CRC 39F5E9CF
Accurately ripped (confidence 3) [64AAF23D] (AR v2)
Copy OK

Track 9

Filename D:\#cdr\#wav+flac\#Add\Lou Reed - New York\cd 3\09. Lou Reed - Sick of You (Rough Mix).wav

Peak level 86.3 %
Extraction speed 7.3 X
Track quality 100.0 %
Test CRC 99C54585
Copy CRC 99C54585
Accurately ripped (confidence 3) [3277426B] (AR v2)
Copy OK

Track 10

Filename D:\#cdr\#wav+flac\#Add\Lou Reed - New York\cd 3\10. Lou Reed - Hold On (Rough Mix).wav

Peak level 72.4 %
Extraction speed 7.3 X
Track quality 100.0 %
Test CRC 65C5EC9C
Copy CRC 65C5EC9C
Accurately ripped (confidence 3) [4A4E4D2B] (AR v2)
Copy OK

Track 11

Filename D:\#cdr\#wav+flac\#Add\Lou Reed - New York\cd 3\11. Lou Reed - Strawman (Rough Mix).wav

Peak level 84.0 %
Extraction speed 7.4 X
Track quality 99.9 %
Test CRC 010D2CD7
Copy CRC 010D2CD7
Accurately ripped (confidence 3) [4F42E044] (AR v2)
Copy OK

Track 12

Filename D:\#cdr\#wav+flac\#Add\Lou Reed - New York\cd 3\12. Lou Reed - The Room.wav

Peak level 77.8 %
Extraction speed 8.3 X
Track quality 100.0 %
Test CRC 028168E7
Copy CRC 028168E7
Accurately ripped (confidence 3) [087F47A8] (AR v2)
Copy OK

Track 13

Filename D:\#cdr\#wav+flac\#Add\Lou Reed - New York\cd 3\13. Lou Reed - Sweet Jane (Live Encore at The Mosque, Richmond, VA, 8,8,1989).wav

Peak level 83.0 %
Extraction speed 9.2 X
Track quality 100.0 %
Test CRC 9E3C82D2
Copy CRC 9E3C82D2
Accurately ripped (confidence 3) [2CC15C6E] (AR v2)
Copy OK

Track 14

Filename D:\#cdr\#wav+flac\#Add\Lou Reed - New York\cd 3\14. Lou Reed - Walk on the Wild Side (Live Encore at The Mosque, Richmond, VA, 8,8,1989).wav

Peak level 82.4 %
Extraction speed 7.6 X
Track quality 99.9 %
Test CRC 98F3B453
Copy CRC 98F3B453
Accurately ripped (confidence 3) [6B7EDE8C] (AR v2)
Copy OK


All tracks accurately ripped

No errors occurred

End of status report

–– CUETools DB Plugin V2.1.6

[CTDB TOCID: dpXfNCzN4jSPwPemBo9OYYox2I4-] found
Submit result: dpXfNCzN4jSPwPemBo9OYYox2I4- has been confirmed
Track | CTDB Status
1 | (16/16) Accurately ripped
2 | (16/16) Accurately ripped
3 | (16/16) Accurately ripped
4 | (16/16) Accurately ripped
5 | (16/16) Accurately ripped
6 | (16/16) Accurately ripped
7 | (16/16) Accurately ripped
8 | (16/16) Accurately ripped
9 | (16/16) Accurately ripped
10 | (16/16) Accurately ripped
11 | (16/16) Accurately ripped
12 | (16/16) Accurately ripped
13 | (16/16) Accurately ripped
14 | (16/16) Accurately ripped


==== Log checksum 1CC379C7F9CF99AEE911FF7938C0B73E4ADF30A2D6A212E24BCA4A078056EC99 ====

Thanks to the Original ripper !