Subcategories
Tags
Language
Tags

Grateful Dead - Dave’s Picks Vol. 23 (2017)

Posted By: delpotro
Grateful Dead - Dave’s Picks Vol. 23 (2017)

Grateful Dead - Dave’s Picks Vol. 23 (2017)
EAC Rip | FLAC (tracks+log+.cue) | 02:47:50 | 940 Mb
Rock, Classic Rock, Psychedelic Rock | Label: Rhino Entertainment

Dave's Picks Volume 23 is a live album by the rock band the Grateful Dead. It contains the complete concert recorded at McArthur Court at the University of Oregon in Eugene, Oregon on January 22, 1978. It was produced as a limited edition of 16,500 copies, and was released on August 1, 2017.

Close encounters in Eugene, Oregon! We are not alone in saying this one could be considered top-of-line Grateful Dead from 1978. Yes, as the tales have been told, 1/22/78 conjured up vibes of the Be-in, Altamont, Yippies, Psychedelia, Woodstock, Free Speech, Acid Trips, heaven for one lucky concert-goer, and of course, aliens. If you wanna know what we’re on about, there’s no better way to experience the show than with this lovingly-restored version from legendary sound engineer Betty Cantor-Jackson’s recordings. Witness sets packed with bright and vibrant gems like a surprisingly heavy “Row Jimmy,” a freshly tender “Ship Of Fools,” and a transcendental “The Other One.” And if you have levitated too far, Jerry’s “Close Encounters” solo (ironic, we know) will reel you back in and set you right up for the powerful crescendo of “St. Stephen” and the band's shake-it-all-about boogie-down finale.
Mastered to HDCD specs by Jeffrey Norman and featuring illustrations by 2017 Dave's Picks Artist-In-Residence Dave Van Patten and liners by Grateful Dead scribe Jesse Jarnow, Dave's Picks Volume 23 is limited to 16,500 individually numbered copies.


Long-running Grateful Dead archival series Dave's Picks delivers a true gem on Vol. 23, featuring what many die-hard Deadheads claim to be one of the best shows of 1978: January 22 at University of Oregon's McArthur Court in Eugene. Notable for a number of strong performances, this date came to be known as the "Close Encounters show" thanks to a deep and wandering late-set jam in which Jerry Garcia quotes composer John Williams' now-iconic five-note tag from Steven Spielberg's then-current sci-fi film. Emerging from the wild and jazzy cosmos of "Space," Garcia and keyboardist Keith Godchaux deftly segue into a particularly spirited "St. Stephen," which could have easily closed out an already epic show, but instead sets up a relentlessly energetic half-hour finale of "Not Fade Away," "Around and Around," and "U.S. Blues." Plenty of other highlights abound on the Dead's first visit to Eugene in six years, causing this show to have been one of the more widely traded tapes of the era. The newly uncovered Betty Cantor-Jackson recordings from this night finally put all the sonic pieces together on this excellent release.
Tracklist:
Disc 1
1. New Minglewood Blues [6:20]
2. Dire Wolf [4:35]
3. Cassidy [5:08]
4. Peggy-O [7:23]
5. El Paso [5:21]
6. Tennessee Jed [9:06]
7. Jack Straw [6:08]
8. Row Jimmy [10:37]
9. The Music Never Stopped [8:08]

Disc 2
1. Bertha> [6:52]
2. Good Lovin’ [6:26]
3. Ship Of Fools [7:33]
4. Samson And Delilah [7:48]

Disc 3
1. Terrapin Station> [11:08]
2. Drums> [7:51]
3. The Other One> [16:57]
4. Space> [3:52]
5. St. Stephen> [7:39]
6. Not Fade Away> [14:09]
7. Around And Around [8:57]
Encore
8. U.S. Blues [5:53]

Exact Audio Copy V1.0 beta 3 from 29. August 2011

EAC extraction logfile from 29. July 2017, 14:09

Grateful Dead / Dave's Picks Vol. 23: McArthur Court, University Of Oregon, Eugene, OR (1/22/78)

Used drive : HL-DT-STBD-RE WH12LS39 Adapter: 1 ID: 1

Read mode : Secure
Utilize accurate stream : Yes
Defeat audio cache : Yes
Make use of C2 pointers : No

Read offset correction : 667
Overread into Lead-In and Lead-Out : No
Fill up missing offset samples with silence : Yes
Delete leading and trailing silent blocks : No
Null samples used in CRC calculations : Yes
Used interface : Native Win32 interface for Win NT & 2000
Gap handling : Appended to previous track

Used output format : User Defined Encoder
Selected bitrate : 1024 kBit/s
Quality : High
Add ID3 tag : No
Command line compressor : C:\Program Files (x86)\Exact Audio Copy\FLAC\FLAC.EXE
Additional command line options : -8 -V -T "ARTIST=%artist%" -T "TITLE=%title%" -T "ALBUM=%albumtitle%" -T "DATE=%year%" -T "TRACKNUMBER=%tracknr%" -T "GENRE=%genre%" -T "PERFORMER=%albuminterpret%" -T "COMPOSER=%composer%" %haslyrics%–tag-from-file=LYRICS="%lyricsfile%"%haslyrics% -T "ALBUMARTIST=%albumartist%" -T "DISCNUMBER=%cdnumber%" -T "TOTALDISCS=%totalcds%" -T "TOTALTRACKS=%numtracks%" -T "COMMENT=%comment%" %source% -o %dest%


TOC of the extracted CD

Track | Start | Length | Start sector | End sector
––––––––––––––––––––––––––––-
1 | 0:00.00 | 6:20.09 | 0 | 28508
2 | 6:20.09 | 4:34.39 | 28509 | 49097
3 | 10:54.48 | 5:08.19 | 49098 | 72216
4 | 16:02.67 | 7:22.53 | 72217 | 105419
5 | 23:25.45 | 5:21.19 | 105420 | 129513
6 | 28:46.64 | 9:06.22 | 129514 | 170485
7 | 37:53.11 | 6:07.54 | 170486 | 198064
8 | 44:00.65 | 10:36.71 | 198065 | 245835
9 | 54:37.61 | 8:07.49 | 245836 | 282409


Track 1

Filename E:\Rips\Grateful Dead\Dave's Picks Vol. 23 McArthur Court, University Of Oregon, Eugene, OR 01-22-78\01 New Minglewood Blues - Grateful Dead.wav

Pre-gap length 0:00:02.00

Peak level 97.7 %
Extraction speed 1.2 X
Track quality 99.9 %
Test CRC BDEE0556
Copy CRC BDEE0556
Track not present in AccurateRip database
Copy OK

Track 2

Filename E:\Rips\Grateful Dead\Dave's Picks Vol. 23 McArthur Court, University Of Oregon, Eugene, OR 01-22-78\02 Dire Wolf - Grateful Dead.wav

Peak level 97.7 %
Extraction speed 1.2 X
Track quality 99.9 %
Test CRC 863CCBF8
Copy CRC 863CCBF8
Track not present in AccurateRip database
Copy OK

Track 3

Filename E:\Rips\Grateful Dead\Dave's Picks Vol. 23 McArthur Court, University Of Oregon, Eugene, OR 01-22-78\03 Cassidy - Grateful Dead.wav

Peak level 97.7 %
Extraction speed 1.5 X
Track quality 100.0 %
Test CRC 626C2267
Copy CRC 626C2267
Track not present in AccurateRip database
Copy OK

Track 4

Filename E:\Rips\Grateful Dead\Dave's Picks Vol. 23 McArthur Court, University Of Oregon, Eugene, OR 01-22-78\04 Peggy-O - Grateful Dead.wav

Peak level 97.7 %
Extraction speed 1.8 X
Track quality 100.0 %
Test CRC FA0D8A43
Copy CRC FA0D8A43
Track not present in AccurateRip database
Copy OK

Track 5

Filename E:\Rips\Grateful Dead\Dave's Picks Vol. 23 McArthur Court, University Of Oregon, Eugene, OR 01-22-78\05 El Paso - Grateful Dead.wav

Peak level 97.7 %
Extraction speed 1.8 X
Track quality 100.0 %
Test CRC 4DCD40BE
Copy CRC 4DCD40BE
Track not present in AccurateRip database
Copy OK

Track 6

Filename E:\Rips\Grateful Dead\Dave's Picks Vol. 23 McArthur Court, University Of Oregon, Eugene, OR 01-22-78\06 Tennessee Jed - Grateful Dead.wav

Peak level 97.7 %
Extraction speed 2.1 X
Track quality 100.0 %
Test CRC 22EED999
Copy CRC 22EED999
Track not present in AccurateRip database
Copy OK

Track 7

Filename E:\Rips\Grateful Dead\Dave's Picks Vol. 23 McArthur Court, University Of Oregon, Eugene, OR 01-22-78\07 Jack Straw - Grateful Dead.wav

Peak level 97.7 %
Extraction speed 2.2 X
Track quality 100.0 %
Test CRC 54539ED3
Copy CRC 54539ED3
Track not present in AccurateRip database
Copy OK

Track 8

Filename E:\Rips\Grateful Dead\Dave's Picks Vol. 23 McArthur Court, University Of Oregon, Eugene, OR 01-22-78\08 Row Jimmy - Grateful Dead.wav

Peak level 97.7 %
Extraction speed 2.4 X
Track quality 100.0 %
Test CRC 42AACEEA
Copy CRC 42AACEEA
Track not present in AccurateRip database
Copy OK

Track 9

Filename E:\Rips\Grateful Dead\Dave's Picks Vol. 23 McArthur Court, University Of Oregon, Eugene, OR 01-22-78\09 The Music Never Stopped - Grateful Dead.wav

Peak level 97.7 %
Extraction speed 2.5 X
Track quality 100.0 %
Test CRC D00FDE2A
Copy CRC D00FDE2A
Track not present in AccurateRip database
Copy OK


None of the tracks are present in the AccurateRip database

No errors occurred

End of status report

–– CUETools DB Plugin V2.1.4

[CTDB TOCID: dFNErgzd7GMHrUAS.aUulTScCCA-] found
Submit result: dFNErgzd7GMHrUAS.aUulTScCCA- has been confirmed
Track | CTDB Status
1 | (12/12) Accurately ripped
2 | (12/12) Accurately ripped
3 | (12/12) Accurately ripped
4 | (12/12) Accurately ripped
5 | (12/12) Accurately ripped
6 | (12/12) Accurately ripped
7 | (12/12) Accurately ripped
8 | (12/12) Accurately ripped
9 | (12/12) Accurately ripped


==== Log checksum E0588ACDB210EB21F101B0FB14F175696F0E006A0ED685F47163D21139861473 ====

Exact Audio Copy V1.0 beta 3 from 29. August 2011

EAC extraction logfile from 29. July 2017, 15:00

Grateful Dead / Dave's Picks Vol. 23: McArthur Court, University Of Oregon, Eugene, OR (1/22/78)

Used drive : HL-DT-STBD-RE WH12LS39 Adapter: 1 ID: 1

Read mode : Secure
Utilize accurate stream : Yes
Defeat audio cache : Yes
Make use of C2 pointers : No

Read offset correction : 667
Overread into Lead-In and Lead-Out : No
Fill up missing offset samples with silence : Yes
Delete leading and trailing silent blocks : No
Null samples used in CRC calculations : Yes
Used interface : Native Win32 interface for Win NT & 2000
Gap handling : Appended to previous track

Used output format : User Defined Encoder
Selected bitrate : 1024 kBit/s
Quality : High
Add ID3 tag : No
Command line compressor : C:\Program Files (x86)\Exact Audio Copy\FLAC\FLAC.EXE
Additional command line options : -8 -V -T "ARTIST=%artist%" -T "TITLE=%title%" -T "ALBUM=%albumtitle%" -T "DATE=%year%" -T "TRACKNUMBER=%tracknr%" -T "GENRE=%genre%" -T "PERFORMER=%albuminterpret%" -T "COMPOSER=%composer%" %haslyrics%–tag-from-file=LYRICS="%lyricsfile%"%haslyrics% -T "ALBUMARTIST=%albumartist%" -T "DISCNUMBER=%cdnumber%" -T "TOTALDISCS=%totalcds%" -T "TOTALTRACKS=%numtracks%" -T "COMMENT=%comment%" %source% -o %dest%


TOC of the extracted CD

Track | Start | Length | Start sector | End sector
––––––––––––––––––––––––––––-
1 | 0:00.00 | 6:51.54 | 0 | 30878
2 | 6:51.54 | 6:26.00 | 30879 | 59828
3 | 13:17.54 | 7:33.05 | 59829 | 93808
4 | 20:50.59 | 7:48.06 | 93809 | 128914


Track 1

Filename E:\Rips\Grateful Dead\Dave's Picks Vol. 23 McArthur Court, University Of Oregon, Eugene, OR 01-22-78\10 Bertha.wav

Pre-gap length 0:00:02.00

Peak level 97.7 %
Extraction speed 1.2 X
Track quality 100.0 %
Test CRC 31657472
Copy CRC 31657472
Track not present in AccurateRip database
Copy OK

Track 2

Filename E:\Rips\Grateful Dead\Dave's Picks Vol. 23 McArthur Court, University Of Oregon, Eugene, OR 01-22-78\11 Good Lovin'.wav

Peak level 97.7 %
Extraction speed 1.4 X
Track quality 100.0 %
Test CRC 86B74376
Copy CRC 86B74376
Track not present in AccurateRip database
Copy OK

Track 3

Filename E:\Rips\Grateful Dead\Dave's Picks Vol. 23 McArthur Court, University Of Oregon, Eugene, OR 01-22-78\12 Ship Of Fools.wav

Peak level 97.7 %
Extraction speed 1.6 X
Track quality 100.0 %
Test CRC C2BF2244
Copy CRC C2BF2244
Track not present in AccurateRip database
Copy OK

Track 4

Filename E:\Rips\Grateful Dead\Dave's Picks Vol. 23 McArthur Court, University Of Oregon, Eugene, OR 01-22-78\13 Samson And Delilah.wav

Peak level 97.7 %
Extraction speed 1.8 X
Track quality 100.0 %
Test CRC 42F14266
Copy CRC 42F14266
Track not present in AccurateRip database
Copy OK


None of the tracks are present in the AccurateRip database

No errors occurred

End of status report

–– CUETools DB Plugin V2.1.4

[CTDB TOCID: 78zsH_.6r.313u98PBzQ6pGmK6o-] found
Submit result: 78zsH_.6r.313u98PBzQ6pGmK6o- has been confirmed
Track | CTDB Status
1 | (12/12) Accurately ripped
2 | (12/12) Accurately ripped
3 | (12/12) Accurately ripped
4 | (11/12) Accurately ripped


==== Log checksum 3B61F49E57D53B83F381CA17FD1CC0BA4BBB859F9181F9D964BFDA72141A3EED ====

Exact Audio Copy V1.0 beta 3 from 29. August 2011

EAC extraction logfile from 29. July 2017, 16:26

Grateful Dead / Dave's Picks Vol. 23: McArthur Court, University Of Oregon, Eugene, OR (1/22/78)

Used drive : HL-DT-STBD-RE WH12LS39 Adapter: 1 ID: 1

Read mode : Secure
Utilize accurate stream : Yes
Defeat audio cache : Yes
Make use of C2 pointers : No

Read offset correction : 667
Overread into Lead-In and Lead-Out : No
Fill up missing offset samples with silence : Yes
Delete leading and trailing silent blocks : No
Null samples used in CRC calculations : Yes
Used interface : Native Win32 interface for Win NT & 2000
Gap handling : Appended to previous track

Used output format : User Defined Encoder
Selected bitrate : 1024 kBit/s
Quality : High
Add ID3 tag : No
Command line compressor : C:\Program Files (x86)\Exact Audio Copy\FLAC\FLAC.EXE
Additional command line options : -8 -V -T "ARTIST=%artist%" -T "TITLE=%title%" -T "ALBUM=%albumtitle%" -T "DATE=%year%" -T "TRACKNUMBER=%tracknr%" -T "GENRE=%genre%" -T "PERFORMER=%albuminterpret%" -T "COMPOSER=%composer%" %haslyrics%–tag-from-file=LYRICS="%lyricsfile%"%haslyrics% -T "ALBUMARTIST=%albumartist%" -T "DISCNUMBER=%cdnumber%" -T "TOTALDISCS=%totalcds%" -T "TOTALTRACKS=%numtracks%" -T "COMMENT=%comment%" %source% -o %dest%


TOC of the extracted CD

Track | Start | Length | Start sector | End sector
––––––––––––––––––––––––––––-
1 | 0:00.00 | 11:07.41 | 0 | 50065
2 | 11:07.41 | 7:51.10 | 50066 | 85400
3 | 18:58.51 | 16:57.14 | 85401 | 161689
4 | 35:55.65 | 3:52.30 | 161690 | 179119
5 | 39:48.20 | 7:39.07 | 179120 | 213551
6 | 47:27.27 | 14:08.49 | 213552 | 277200
7 | 61:36.01 | 8:57.14 | 277201 | 317489
8 | 70:33.15 | 5:52.38 | 317490 | 343927


Track 1

Filename E:\Rips\Grateful Dead\Dave's Picks Vol. 23 McArthur Court, University Of Oregon, Eugene, OR 01-22-78\14 Terrapin Station.wav

Pre-gap length 0:00:02.00

Peak level 97.7 %
Extraction speed 1.4 X
Track quality 100.0 %
Test CRC F2394D8F
Copy CRC F2394D8F
Track not present in AccurateRip database
Copy OK

Track 2

Filename E:\Rips\Grateful Dead\Dave's Picks Vol. 23 McArthur Court, University Of Oregon, Eugene, OR 01-22-78\15 Drums.wav

Peak level 97.7 %
Extraction speed 1.5 X
Track quality 99.9 %
Test CRC 1001D487
Copy CRC 1001D487
Track not present in AccurateRip database
Copy OK

Track 3

Filename E:\Rips\Grateful Dead\Dave's Picks Vol. 23 McArthur Court, University Of Oregon, Eugene, OR 01-22-78\16 The Other One.wav

Peak level 97.7 %
Extraction speed 2.0 X
Track quality 100.0 %
Test CRC DF16B0CF
Copy CRC DF16B0CF
Track not present in AccurateRip database
Copy OK

Track 4

Filename E:\Rips\Grateful Dead\Dave's Picks Vol. 23 McArthur Court, University Of Oregon, Eugene, OR 01-22-78\17 Space.wav

Peak level 65.5 %
Extraction speed 1.8 X
Track quality 99.9 %
Test CRC 0E3B7BEE
Copy CRC 0E3B7BEE
Track not present in AccurateRip database
Copy OK

Track 5

Filename E:\Rips\Grateful Dead\Dave's Picks Vol. 23 McArthur Court, University Of Oregon, Eugene, OR 01-22-78\18 St. Stephen.wav

Peak level 97.7 %
Extraction speed 2.2 X
Track quality 100.0 %
Test CRC 25A41A0B
Copy CRC 25A41A0B
Track not present in AccurateRip database
Copy OK

Track 6

Filename E:\Rips\Grateful Dead\Dave's Picks Vol. 23 McArthur Court, University Of Oregon, Eugene, OR 01-22-78\19 Not Fade Away.wav

Peak level 97.7 %
Extraction speed 2.5 X
Track quality 100.0 %
Test CRC 47034C31
Copy CRC 47034C31
Track not present in AccurateRip database
Copy OK

Track 7

Filename E:\Rips\Grateful Dead\Dave's Picks Vol. 23 McArthur Court, University Of Oregon, Eugene, OR 01-22-78\20 Around And Around.wav

Peak level 97.7 %
Extraction speed 2.5 X
Track quality 99.9 %
Test CRC 3BF3B5EF
Copy CRC 3BF3B5EF
Track not present in AccurateRip database
Copy OK

Track 8

Filename E:\Rips\Grateful Dead\Dave's Picks Vol. 23 McArthur Court, University Of Oregon, Eugene, OR 01-22-78\21 U.S. Blues.wav

Peak level 97.7 %
Extraction speed 2.7 X
Track quality 100.0 %
Test CRC 2D1A851D
Copy CRC 2D1A851D
Track not present in AccurateRip database
Copy OK


None of the tracks are present in the AccurateRip database

No errors occurred

End of status report

–– CUETools DB Plugin V2.1.4

[CTDB TOCID: VNDy3AE1vrFbAJRHDzTFj93NuP4-] found
Submit result: VNDy3AE1vrFbAJRHDzTFj93NuP4- has been confirmed
Track | CTDB Status
1 | (11/11) Accurately ripped
2 | (11/11) Accurately ripped
3 | ( 9/11) Accurately ripped
4 | (11/11) Accurately ripped
5 | (11/11) Accurately ripped
6 | (11/11) Accurately ripped
7 | (11/11) Accurately ripped
8 | (11/11) Accurately ripped


==== Log checksum 27BF66CA93BC58BD682679F4FFBD54C41F04C5B23BAC686AC64E7C55BFC79CA5 ====

Thanks to the Original ripper brainded !