Tags
Language
Tags
February 2024
Su Mo Tu We Th Fr Sa
28 29 30 31 1 2 3
4 5 6 7 8 9 10
11 12 13 14 15 16 17
18 19 20 21 22 23 24
25 26 27 28 29 1 2
Attention❗ To save your time, in order to download anything on this site, you must be registered 👉 HERE. If you do not have a registration yet, it is better to do it right away. ✌

( • )( • ) ( ͡⚆ ͜ʖ ͡⚆ ) (‿ˠ‿)
SpicyMags.xyz

Three Dog Night - Celebrate: The Three Dog Night Story 1965-1975 (1993)

Posted By: Rtax
Three Dog Night - Celebrate: The Three Dog Night Story 1965-1975 (1993)

Three Dog Night - Celebrate: The Three Dog Night Story 1965-1975 (1993)
EAC Rip | FLAC (tracks, cue, log) - 822 MB | MP3 CBR 320 kbps - 336 MB
2:27:08 | Full scans Included | Classic Rock | Label: MCA Records

One of the better compilations of Three Dog Night material, Celebrate covers all the important bases in the popular singles band's career. There's a brief hint of pre-3DN material from co-lead singers Danny Hutton and Cory Wells (no Chuck Negron), along with one stellar, tragically unreleased track from the band's brief Redwood incarnation, the Brian Wilson-penned "Time to Get Alone." The remainder of this two-CD collection recaps the group's many Top 40 hits along with choice album tracks. The songs are judiciously chosen, and the liner notes provide insights into the band's creative process and internal skirmishes, but there's nothing in the way of remastered tracks or uncovered obscurities. Nevertheless, this is a better option for Three Dog Night fans than any of the numerous single-disc greatest hits collections available, simply because there are no glaring oversights in the song choices. The expanded selection also makes the set a great one to convert anyone not yet warm to Three Dog Night's intricate harmony stylings: just play them the gorgeous non-singles "It's for You," "My Impersonal Life," and "I'd Be So Happy" back to back.

Tracklist
Disc 1
1. Danny Hutton – Roses And Rainbows
2. Danny Hutton – Funny How Love Can Be
3. Cory Wells & The Enemys – Sinner Man
4. Redwood – Time To Get Alone (Previously Unreleased)
5. Three Dog Night – If You Knew (Previously Unreleased Demo)
6. Three Dog Night – Nobody
7. Three Dog Night – It's For You
8. Three Dog Night – Try A Little Tenderness
9. Three Dog Night – One
10. Three Dog Night – Heaven Is In Your Mind
11. Three Dog Night – Easy To Be Hard
12. Three Dog Night – Eli's Coming
13. Three Dog Night – Celebrate
14. Three Dog Night – Lady Samantha
15. Three Dog Night – Mama Told Me (Not To Come)
16. Three Dog Night – Cowboy
17. Three Dog Night – Out In The Country
18. Three Dog Night – Your Song
19. Three Dog Night – Good Feeling
20. Three Dog Night – One Man Band
21. Three Dog Night – I Can Hear You Calling
22. Three Dog Night – Joy To The World
23. Three Dog Night – Liar
24. Three Dog Night – An Old Fashioned Love Song

Disc 2
1. Three Dog Night – Never Been To Spain
2. Three Dog Night – My Impersonal Life
3. Three Dog Night – The Family Of Man
4. Three Dog Night – Going In Circles
5. Three Dog Night – You
6. Three Dog Night – Night In The City
7. Three Dog Night – Never Dreamed You'd Leave In Summer
8. Three Dog Night – Black & White
9. Three Dog Night – In Bed
10. Three Dog Night – Midnight Runaway
11. Three Dog Night – Pieces Of April
12. Three Dog Night – Shambala
13. Three Dog Night – Our "B" Side
14. Three Dog Night – Let Me Serenade You
15. Three Dog Night – The Show Must Go On
16. Three Dog Night – Sure As I'm Sitting Here
17. Three Dog Night – I'd Be So Happy
18. Three Dog Night – Play Something Sweet (Brickyard Blues)
19. Three Dog Night – Til The World Ends
Exact Audio Copy V1.0 beta 3 from 29. August 2011

EAC extraction logfile from 30. May 2015, 13:44

Three Dog Night / Celebrate 1965-1975 (Disc 1)

Used drive : hp DVDRW DU8A5SHL Adapter: 0 ID: 0

Read mode : Secure
Utilize accurate stream : Yes
Defeat audio cache : Yes
Make use of C2 pointers : No

Read offset correction : 6
Overread into Lead-In and Lead-Out : No
Fill up missing offset samples with silence : Yes
Delete leading and trailing silent blocks : No
Null samples used in CRC calculations : Yes
Used interface : Native Win32 interface for Win NT & 2000
Gap handling : Appended to previous track

Used output format : User Defined Encoder
Selected bitrate : 1024 kBit/s
Quality : High
Add ID3 tag : No
Command line compressor : C:\Program Files (x86)\Exact Audio Copy\FLAC\FLAC.EXE
Additional command line options : -8 -V -T "ARTIST=%artist%" -T "TITLE=%title%" -T "ALBUM=%albumtitle%" -T "DATE=%year%" -T "TRACKNUMBER=%tracknr%" -T "GENRE=%genre%" -T "PERFORMER=%albuminterpret%" -T "COMPOSER=%composer%" %haslyrics%–tag-from-file=LYRICS="%lyricsfile%"%haslyrics% -T "ALBUMARTIST=%albumartist%" -T "DISCNUMBER=%cdnumber%" -T "TOTALDISCS=%totalcds%" -T "TOTALTRACKS=%numtracks%" -T "COMMENT=%comment%" %source% -o %dest%


TOC of the extracted CD

Track | Start | Length | Start sector | End sector
––––––––––––––––––––––––––––-
1 | 0:00.00 | 2:11.34 | 0 | 9858
2 | 2:11.34 | 2:36.13 | 9859 | 21571
3 | 4:47.47 | 2:59.18 | 21572 | 35014
4 | 7:46.65 | 2:49.10 | 35015 | 47699
5 | 10:36.00 | 2:10.50 | 47700 | 57499
6 | 12:46.50 | 2:23.17 | 57500 | 68241
7 | 15:09.67 | 1:59.65 | 68242 | 77231
8 | 17:09.57 | 4:25.00 | 77232 | 97106
9 | 21:34.57 | 3:04.70 | 97107 | 110976
10 | 24:39.52 | 3:02.68 | 110977 | 124694
11 | 27:42.45 | 3:14.05 | 124695 | 139249
12 | 30:56.50 | 2:48.02 | 139250 | 151851
13 | 33:44.52 | 3:01.38 | 151852 | 165464
14 | 36:46.15 | 2:54.72 | 165465 | 178586
15 | 39:41.12 | 3:20.40 | 178587 | 193626
16 | 43:01.52 | 3:40.48 | 193627 | 210174
17 | 46:42.25 | 3:08.35 | 210175 | 224309
18 | 49:50.60 | 3:57.67 | 224310 | 242151
19 | 53:48.52 | 3:34.15 | 242152 | 258216
20 | 57:22.67 | 2:54.08 | 258217 | 271274
21 | 60:17.00 | 2:58.22 | 271275 | 284646
22 | 63:15.22 | 3:17.05 | 284647 | 299426
23 | 66:32.27 | 3:21.18 | 299427 | 314519
24 | 69:53.45 | 3:50.52 | 314520 | 331821


Track 1

Filename C:\EAC Rips\Three Dog Night - 1993 - Celebrate - The Three Dog Night Story 1965-1975\CD1\01 - Roses And Rainbows (Danny Hutton).wav

Pre-gap length 0:00:02.00

Peak level 88.4 %
Extraction speed 0.9 X
Track quality 99.9 %
Test CRC 0AC0D1FE
Copy CRC 0AC0D1FE
Accurately ripped (confidence 3) [332E2AB4] (AR v2)
Copy OK

Track 2

Filename C:\EAC Rips\Three Dog Night - 1993 - Celebrate - The Three Dog Night Story 1965-1975\CD1\02 - Funny How Love Can Be (Danny Hutton).wav

Pre-gap length 0:00:02.05

Peak level 97.2 %
Extraction speed 1.2 X
Track quality 100.0 %
Test CRC F7602250
Copy CRC F7602250
Accurately ripped (confidence 3) [7FD63E01] (AR v2)
Copy OK

Track 3

Filename C:\EAC Rips\Three Dog Night - 1993 - Celebrate - The Three Dog Night Story 1965-1975\CD1\03 - Sinner Man (Cory Wells & The Enemys).wav

Pre-gap length 0:00:01.00

Peak level 99.6 %
Extraction speed 1.3 X
Track quality 100.0 %
Test CRC C9928766
Copy CRC C9928766
Accurately ripped (confidence 3) [D2BFB772] (AR v2)
Copy OK

Track 4

Filename C:\EAC Rips\Three Dog Night - 1993 - Celebrate - The Three Dog Night Story 1965-1975\CD1\04 - Time To Get Alone (Redwood).wav

Pre-gap length 0:00:01.86

Peak level 78.3 %
Extraction speed 1.3 X
Track quality 100.0 %
Test CRC 4A9B9289
Copy CRC 4A9B9289
Accurately ripped (confidence 3) [C88088AD] (AR v2)
Copy OK

Track 5

Filename C:\EAC Rips\Three Dog Night - 1993 - Celebrate - The Three Dog Night Story 1965-1975\CD1\05 - If You Knew (Demo).wav

Pre-gap length 0:00:01.90

Peak level 97.2 %
Extraction speed 1.3 X
Track quality 100.0 %
Test CRC D8AF4D6F
Copy CRC D8AF4D6F
Accurately ripped (confidence 3) [B8DC8C88] (AR v2)
Copy OK

Track 6

Filename C:\EAC Rips\Three Dog Night - 1993 - Celebrate - The Three Dog Night Story 1965-1975\CD1\06 - Nobody.wav

Pre-gap length 0:00:02.17

Peak level 95.2 %
Extraction speed 1.4 X
Track quality 100.0 %
Test CRC A88DF4EE
Copy CRC A88DF4EE
Accurately ripped (confidence 3) [AEC8C4F9] (AR v2)
Copy OK

Track 7

Filename C:\EAC Rips\Three Dog Night - 1993 - Celebrate - The Three Dog Night Story 1965-1975\CD1\07 - It's For You.wav

Peak level 94.9 %
Extraction speed 1.1 X
Track quality 99.9 %
Test CRC 40E83AA9
Copy CRC 40E83AA9
Accurately ripped (confidence 3) [65CDA7BA] (AR v2)
Copy OK

Track 8

Filename C:\EAC Rips\Three Dog Night - 1993 - Celebrate - The Three Dog Night Story 1965-1975\CD1\08 - Try a Little Tenderness.wav

Pre-gap length 0:00:02.36

Peak level 86.4 %
Extraction speed 1.7 X
Track quality 100.0 %
Test CRC D2AC8DF1
Copy CRC D2AC8DF1
Accurately ripped (confidence 3) [0D69B31F] (AR v2)
Copy OK

Track 9

Filename C:\EAC Rips\Three Dog Night - 1993 - Celebrate - The Three Dog Night Story 1965-1975\CD1\09 - One.wav

Pre-gap length 0:00:01.40

Peak level 97.2 %
Extraction speed 1.5 X
Track quality 99.9 %
Test CRC E68B34A9
Copy CRC E68B34A9
Accurately ripped (confidence 3) [524BA6EA] (AR v2)
Copy OK

Track 10

Filename C:\EAC Rips\Three Dog Night - 1993 - Celebrate - The Three Dog Night Story 1965-1975\CD1\10 - Heaven Is In Your Mind.wav

Peak level 86.8 %
Extraction speed 1.5 X
Track quality 99.9 %
Test CRC A8A966B9
Copy CRC A8A966B9
Accurately ripped (confidence 3) [02256D84] (AR v2)
Copy OK

Track 11

Filename C:\EAC Rips\Three Dog Night - 1993 - Celebrate - The Three Dog Night Story 1965-1975\CD1\11 - Easy To Be Hard.wav

Pre-gap length 0:00:02.73

Peak level 86.9 %
Extraction speed 1.8 X
Track quality 100.0 %
Test CRC FC03FEA1
Copy CRC FC03FEA1
Accurately ripped (confidence 3) [7C9B6F94] (AR v2)
Copy OK

Track 12

Filename C:\EAC Rips\Three Dog Night - 1993 - Celebrate - The Three Dog Night Story 1965-1975\CD1\12 - Eli's Coming.wav

Pre-gap length 0:00:01.77

Peak level 97.2 %
Extraction speed 1.8 X
Track quality 100.0 %
Test CRC FB610A34
Copy CRC FB610A34
Accurately ripped (confidence 3) [5C082CBC] (AR v2)
Copy OK

Track 13

Filename C:\EAC Rips\Three Dog Night - 1993 - Celebrate - The Three Dog Night Story 1965-1975\CD1\13 - Celebrate.wav

Peak level 91.3 %
Extraction speed 1.9 X
Track quality 100.0 %
Test CRC F3C2CFA9
Copy CRC F3C2CFA9
Accurately ripped (confidence 3) [9443BE82] (AR v2)
Copy OK

Track 14

Filename C:\EAC Rips\Three Dog Night - 1993 - Celebrate - The Three Dog Night Story 1965-1975\CD1\14 - Lady Samantha.wav

Peak level 81.9 %
Extraction speed 1.7 X
Track quality 99.9 %
Test CRC 3277FFD3
Copy CRC 3277FFD3
Accurately ripped (confidence 3) [9042B2FE] (AR v2)
Copy OK

Track 15

Filename C:\EAC Rips\Three Dog Night - 1993 - Celebrate - The Three Dog Night Story 1965-1975\CD1\15 - Mama Told Me (Not To Come).wav

Pre-gap length 0:00:01.13

Peak level 97.2 %
Extraction speed 1.8 X
Track quality 99.9 %
Test CRC CDE35BB7
Copy CRC CDE35BB7
Accurately ripped (confidence 3) [9D57F394] (AR v2)
Copy OK

Track 16

Filename C:\EAC Rips\Three Dog Night - 1993 - Celebrate - The Three Dog Night Story 1965-1975\CD1\16 - Cowboy.wav

Peak level 62.8 %
Extraction speed 2.1 X
Track quality 100.0 %
Test CRC D31EEC49
Copy CRC D31EEC49
Accurately ripped (confidence 3) [11816B73] (AR v2)
Copy OK

Track 17

Filename C:\EAC Rips\Three Dog Night - 1993 - Celebrate - The Three Dog Night Story 1965-1975\CD1\17 - Out In the Country.wav

Peak level 97.2 %
Extraction speed 2.2 X
Track quality 100.0 %
Test CRC 254A5CF1
Copy CRC 254A5CF1
Accurately ripped (confidence 3) [79563E20] (AR v2)
Copy OK

Track 18

Filename C:\EAC Rips\Three Dog Night - 1993 - Celebrate - The Three Dog Night Story 1965-1975\CD1\18 - Your Song.wav

Peak level 97.2 %
Extraction speed 2.3 X
Track quality 100.0 %
Test CRC 7CF77010
Copy CRC 7CF77010
Accurately ripped (confidence 3) [DD99D4D4] (AR v2)
Copy OK

Track 19

Filename C:\EAC Rips\Three Dog Night - 1993 - Celebrate - The Three Dog Night Story 1965-1975\CD1\19 - Good Feeling (1957).wav

Peak level 97.2 %
Extraction speed 2.3 X
Track quality 100.0 %
Test CRC 17936C27
Copy CRC 17936C27
Accurately ripped (confidence 3) [49E2FA8D] (AR v2)
Copy OK

Track 20

Filename C:\EAC Rips\Three Dog Night - 1993 - Celebrate - The Three Dog Night Story 1965-1975\CD1\20 - One Man Band.wav

Pre-gap length 0:00:01.20

Peak level 97.2 %
Extraction speed 2.3 X
Track quality 100.0 %
Test CRC 17F536CC
Copy CRC 17F536CC
Accurately ripped (confidence 3) [56E56C35] (AR v2)
Copy OK

Track 21

Filename C:\EAC Rips\Three Dog Night - 1993 - Celebrate - The Three Dog Night Story 1965-1975\CD1\21 - I Can Hear You Calling.wav

Pre-gap length 0:00:02.40

Peak level 97.2 %
Extraction speed 2.0 X
Track quality 99.9 %
Test CRC 8C766471
Copy CRC 8C766471
Accurately ripped (confidence 3) [0B11B43B] (AR v2)
Copy OK

Track 22

Filename C:\EAC Rips\Three Dog Night - 1993 - Celebrate - The Three Dog Night Story 1965-1975\CD1\22 - Joy To The World.wav

Pre-gap length 0:00:02.06

Peak level 92.9 %
Extraction speed 2.4 X
Track quality 100.0 %
Test CRC DD8614CE
Copy CRC DD8614CE
Accurately ripped (confidence 3) [5774B27F] (AR v2)
Copy OK

Track 23

Filename C:\EAC Rips\Three Dog Night - 1993 - Celebrate - The Three Dog Night Story 1965-1975\CD1\23 - Liar.wav

Pre-gap length 0:00:01.22

Peak level 97.7 %
Extraction speed 2.5 X
Track quality 100.0 %
Test CRC CE223979
Copy CRC CE223979
Accurately ripped (confidence 3) [1BC3B4D9] (AR v2)
Copy OK

Track 24

Filename C:\EAC Rips\Three Dog Night - 1993 - Celebrate - The Three Dog Night Story 1965-1975\CD1\24 - An Old Fashioned Love Song.wav

Pre-gap length 0:00:01.80

Peak level 100.0 %
Extraction speed 2.6 X
Track quality 100.0 %
Test CRC F90F2463
Copy CRC F90F2463
Accurately ripped (confidence 2) [5A764E8B] (AR v2)
Copy OK


All tracks accurately ripped

No errors occurred

End of status report

==== Log checksum C4C9BF8391417878217B2F7FC0345FDCE3141524AC65A3332BF5A0406868489D ====


Exact Audio Copy V1.0 beta 3 from 29. August 2011

EAC extraction logfile from 30. May 2015, 15:05

Three Dog Night / Celebrate 1965-1975 (Disc 2)

Used drive : hp DVDRW DU8A5SHL Adapter: 0 ID: 0

Read mode : Secure
Utilize accurate stream : Yes
Defeat audio cache : Yes
Make use of C2 pointers : No

Read offset correction : 6
Overread into Lead-In and Lead-Out : No
Fill up missing offset samples with silence : Yes
Delete leading and trailing silent blocks : No
Null samples used in CRC calculations : Yes
Used interface : Native Win32 interface for Win NT & 2000
Gap handling : Appended to previous track

Used output format : User Defined Encoder
Selected bitrate : 1024 kBit/s
Quality : High
Add ID3 tag : No
Command line compressor : C:\Program Files (x86)\Exact Audio Copy\FLAC\FLAC.EXE
Additional command line options : -8 -V -T "ARTIST=%artist%" -T "TITLE=%title%" -T "ALBUM=%albumtitle%" -T "DATE=%year%" -T "TRACKNUMBER=%tracknr%" -T "GENRE=%genre%" -T "PERFORMER=%albuminterpret%" -T "COMPOSER=%composer%" %haslyrics%–tag-from-file=LYRICS="%lyricsfile%"%haslyrics% -T "ALBUMARTIST=%albumartist%" -T "DISCNUMBER=%cdnumber%" -T "TOTALDISCS=%totalcds%" -T "TOTALTRACKS=%numtracks%" -T "COMMENT=%comment%" %source% -o %dest%


TOC of the extracted CD

Track | Start | Length | Start sector | End sector
––––––––––––––––––––––––––––-
1 | 0:00.00 | 3:46.32 | 0 | 16981
2 | 3:46.32 | 4:24.60 | 16982 | 36841
3 | 8:11.17 | 3:28.03 | 36842 | 52444
4 | 11:39.20 | 3:08.07 | 52445 | 66551
5 | 14:47.27 | 3:01.35 | 66552 | 80161
6 | 17:48.62 | 3:17.48 | 80162 | 94984
7 | 21:06.35 | 3:44.19 | 94985 | 111803
8 | 24:50.54 | 3:26.06 | 111804 | 127259
9 | 28:16.60 | 3:57.67 | 127260 | 145101
10 | 32:14.52 | 5:26.10 | 145102 | 169561
11 | 37:40.62 | 4:14.47 | 169562 | 188658
12 | 41:55.34 | 3:27.43 | 188659 | 204226
13 | 45:23.02 | 2:48.65 | 204227 | 216891
14 | 48:11.67 | 3:18.45 | 216892 | 231786
15 | 51:30.37 | 3:48.20 | 231787 | 248906
16 | 55:18.57 | 4:49.58 | 248907 | 270639
17 | 60:08.40 | 4:51.27 | 270640 | 292491
18 | 64:59.67 | 4:51.18 | 292492 | 314334
19 | 69:51.10 | 3:32.37 | 314335 | 330271


Track 1

Filename C:\EAC Rips\Three Dog Night - 1993 - Celebrate - The Three Dog Night Story 1965-1975\CD2\01 - Never Been To Spain.wav

Pre-gap length 0:00:02.00

Peak level 97.2 %
Extraction speed 1.1 X
Track quality 99.9 %
Test CRC 3293B8BE
Copy CRC 3293B8BE
Accurately ripped (confidence 3) [488426DF] (AR v2)
Copy OK

Track 2

Filename C:\EAC Rips\Three Dog Night - 1993 - Celebrate - The Three Dog Night Story 1965-1975\CD2\02 - My Impersonal Life.wav

Pre-gap length 0:00:02.49

Peak level 97.2 %
Extraction speed 1.4 X
Track quality 100.0 %
Test CRC 8AB074B6
Copy CRC 8AB074B6
Accurately ripped (confidence 3) [2503D2EB] (AR v2)
Copy OK

Track 3

Filename C:\EAC Rips\Three Dog Night - 1993 - Celebrate - The Three Dog Night Story 1965-1975\CD2\03 - The Family of Man.wav

Pre-gap length 0:00:02.56

Peak level 97.2 %
Extraction speed 1.4 X
Track quality 100.0 %
Test CRC 78D2BF8A
Copy CRC 78D2BF8A
Accurately ripped (confidence 3) [11611310] (AR v2)
Copy OK

Track 4

Filename C:\EAC Rips\Three Dog Night - 1993 - Celebrate - The Three Dog Night Story 1965-1975\CD2\04 - Going In Circles.wav

Pre-gap length 0:00:02.84

Peak level 97.2 %
Extraction speed 1.5 X
Track quality 100.0 %
Test CRC 9D4E8D82
Copy CRC 9D4E8D82
Accurately ripped (confidence 3) [89B9F0C5] (AR v2)
Copy OK

Track 5

Filename C:\EAC Rips\Three Dog Night - 1993 - Celebrate - The Three Dog Night Story 1965-1975\CD2\05 - You.wav

Pre-gap length 0:00:02.93

Peak level 97.2 %
Extraction speed 1.5 X
Track quality 100.0 %
Test CRC 720D0325
Copy CRC 720D0325
Accurately ripped (confidence 3) [03CF2872] (AR v2)
Copy OK

Track 6

Filename C:\EAC Rips\Three Dog Night - 1993 - Celebrate - The Three Dog Night Story 1965-1975\CD2\06 - Night In The City.wav

Pre-gap length 0:00:02.53

Peak level 97.2 %
Extraction speed 1.6 X
Track quality 100.0 %
Test CRC 76D14D9C
Copy CRC 76D14D9C
Accurately ripped (confidence 3) [6D83BEA5] (AR v2)
Copy OK

Track 7

Filename C:\EAC Rips\Three Dog Night - 1993 - Celebrate - The Three Dog Night Story 1965-1975\CD2\07 - Never Dreamed You'd Leave In Summer.wav

Pre-gap length 0:00:02.04

Peak level 97.2 %
Extraction speed 1.7 X
Track quality 100.0 %
Test CRC AE199EA1
Copy CRC AE199EA1
Accurately ripped (confidence 3) [44156CB8] (AR v2)
Copy OK

Track 8

Filename C:\EAC Rips\Three Dog Night - 1993 - Celebrate - The Three Dog Night Story 1965-1975\CD2\08 - Black & White.wav

Peak level 97.2 %
Extraction speed 1.8 X
Track quality 100.0 %
Test CRC B51E0547
Copy CRC B51E0547
Accurately ripped (confidence 3) [AFF45EE8] (AR v2)
Copy OK

Track 9

Filename C:\EAC Rips\Three Dog Night - 1993 - Celebrate - The Three Dog Night Story 1965-1975\CD2\09 - In Bed.wav

Pre-gap length 0:00:01.84

Peak level 97.2 %
Extraction speed 1.9 X
Track quality 100.0 %
Test CRC A0A57404
Copy CRC A0A57404
Accurately ripped (confidence 3) [064061F1] (AR v2)
Copy OK

Track 10

Filename C:\EAC Rips\Three Dog Night - 1993 - Celebrate - The Three Dog Night Story 1965-1975\CD2\10 - Midnight Runaway.wav

Pre-gap length 0:00:02.26

Peak level 97.2 %
Extraction speed 2.1 X
Track quality 100.0 %
Test CRC ADB7684C
Copy CRC ADB7684C
Accurately ripped (confidence 3) [8BECFDF2] (AR v2)
Copy OK

Track 11

Filename C:\EAC Rips\Three Dog Night - 1993 - Celebrate - The Three Dog Night Story 1965-1975\CD2\11 - Pieces of April.wav

Pre-gap length 0:00:01.40

Peak level 100.0 %
Extraction speed 1.9 X
Track quality 99.9 %
Test CRC 64A6CAA5
Copy CRC 64A6CAA5
Accurately ripped (confidence 3) [8673091F] (AR v2)
Copy OK

Track 12

Filename C:\EAC Rips\Three Dog Night - 1993 - Celebrate - The Three Dog Night Story 1965-1975\CD2\12 - Shambala.wav

Pre-gap length 0:00:01.76

Peak level 97.2 %
Extraction speed 2.1 X
Track quality 100.0 %
Test CRC 9998FE90
Copy CRC 9998FE90
Accurately ripped (confidence 3) [37110FB3] (AR v2)
Copy OK

Track 13

Filename C:\EAC Rips\Three Dog Night - 1993 - Celebrate - The Three Dog Night Story 1965-1975\CD2\13 - Our ''B'' Side.wav

Pre-gap length 0:00:01.73

Peak level 97.2 %
Extraction speed 2.1 X
Track quality 100.0 %
Test CRC BAC3FF1A
Copy CRC BAC3FF1A
Accurately ripped (confidence 3) [8B4E2482] (AR v2)
Copy OK

Track 14

Filename C:\EAC Rips\Three Dog Night - 1993 - Celebrate - The Three Dog Night Story 1965-1975\CD2\14 - Let Me Serenade You.wav

Pre-gap length 0:00:02.26

Peak level 94.6 %
Extraction speed 2.2 X
Track quality 100.0 %
Test CRC CFB32BD6
Copy CRC CFB32BD6
Accurately ripped (confidence 3) [DE8F05A0] (AR v2)
Copy OK

Track 15

Filename C:\EAC Rips\Three Dog Night - 1993 - Celebrate - The Three Dog Night Story 1965-1975\CD2\15 - The Show Must Go On.wav

Pre-gap length 0:00:02.62

Peak level 98.2 %
Extraction speed 2.3 X
Track quality 100.0 %
Test CRC 823D57DA
Copy CRC 823D57DA
Accurately ripped (confidence 3) [CF1B11EA] (AR v2)
Copy OK

Track 16

Filename C:\EAC Rips\Three Dog Night - 1993 - Celebrate - The Three Dog Night Story 1965-1975\CD2\16 - Sure As I'm Sittin' Here.wav

Pre-gap length 0:00:03.53

Peak level 95.8 %
Extraction speed 2.4 X
Track quality 100.0 %
Test CRC C29BBD10
Copy CRC C29BBD10
Accurately ripped (confidence 3) [EBE3CF87] (AR v2)
Copy OK

Track 17

Filename C:\EAC Rips\Three Dog Night - 1993 - Celebrate - The Three Dog Night Story 1965-1975\CD2\17 - I'd Be So Happy.wav

Pre-gap length 0:00:02.17

Peak level 84.5 %
Extraction speed 2.5 X
Track quality 100.0 %
Test CRC D5C6403C
Copy CRC D5C6403C
Accurately ripped (confidence 3) [953B02BC] (AR v2)
Copy OK

Track 18

Filename C:\EAC Rips\Three Dog Night - 1993 - Celebrate - The Three Dog Night Story 1965-1975\CD2\18 - Play Something Sweet (Brickyard Blues).wav

Pre-gap length 0:00:02.02

Peak level 100.0 %
Extraction speed 2.6 X
Track quality 100.0 %
Test CRC 5AECEA18
Copy CRC 5AECEA18
Accurately ripped (confidence 3) [89974352] (AR v2)
Copy OK

Track 19

Filename C:\EAC Rips\Three Dog Night - 1993 - Celebrate - The Three Dog Night Story 1965-1975\CD2\19 - Til The World Ends.wav

Pre-gap length 0:00:02.04

Peak level 96.2 %
Extraction speed 2.2 X
Track quality 99.9 %
Test CRC F2248049
Copy CRC F2248049
Accurately ripped (confidence 3) [70F0EBD6] (AR v2)
Copy OK


All tracks accurately ripped

No errors occurred

End of status report

==== Log checksum 9050024C9B49CAE83ED36FAA8CD26C65ED0CAB73A2E774E0084799B88F05D223 ====