Subcategories

The Birds - The Collectors' Guide To Rare British Birds (1999)

Posted By: gribovar
The Birds - The Collectors' Guide To Rare British Birds (1999)

The Birds - The Collectors' Guide To Rare British Birds (1999)
EAC Rip | APE (image+.cue+log) - 350 MB | MP3 CBR 320 kbps (LAME 3.93) - 137 MB | Covers - 48 MB
Genre: Psychedelic/Garage Rock | RAR 3% Rec. | Label: Decca (564 139-2)

This is an astonishingly lively and exciting collection, coming from a band that scarcely sold any records in their own time and are known today for their name and their lineup, but not their music. The stuff here is as crunchy and grinding as the early Who material, and if the band's own songwriting isn't as distinctive, the style of the performing is more appealing. The songs range from some hot Ron Wood originals ("You're on My Mind," "Next in Line," "That's All I Need") to covers of obscure Motown songs and Pete Townshend material. Think of the Kinks from "Long Tall Sally," the Yardbirds from "A Certain Girl," or the Who from "The Good's Gone" and that's the dominant sound here - curiously, their cover of Townshend's "Run Run Run" starts out as though it's going to turn into "My Generation." Ali MacKenzie sounded like a punkier Roger Daltrey, and Ron Wood's playing was a delightful compendium of rhythm fills and angular blues licks that must've been devastating on-stage. There's also an unlisted bonus track on the CD - at the risk of spoiling the surprise, it's their number from the 1966 horror film The Deadly Bees, which seems not to have survived as a formal, free-standing studio master.
Tracklist:
01. You're on my Mind
02. You Don't Love Me
03. Leaving Here
04. Next in Line
05. No Good Without You Baby
06. How Can It Be?
07. You're on my Mind (Original demo)
08. You Don't Love Me (Original demo)
09. Say Those Magic Words
10. Daddy Daddy
11. Run Run Run (Unnisued track)
12. Good Times (Unnisued track)
13. Say Those Magic Words (Alternate Version)
14. Daddy Daddy (Alternate Version)
15. La Poupee Qui Fait Non (Unnisued track)
16. Run Run Run (Alternate Version)
17. Daddy Daddy (Backing track)
18. Granny Rides Agian (Unissued single track) (+ Hidden Track: That's All I Need (From the film "The Deadly Bees"))

Total time: 58:11

Exact Audio Copy V1.0 beta 1 from 15. November 2010

EAC extraction logfile from 15. February 2011, 20:53

The Birds / The Collector's Guide To Rare British Birds

Used drive : TSSTcorpDVD+-RW TS-L532B Adapter: 1 ID: 0

Read mode : Secure
Utilize accurate stream : Yes
Defeat audio cache : Yes
Make use of C2 pointers : No

Read offset correction : 704
Overread into Lead-In and Lead-Out : No
Fill up missing offset samples with silence : Yes
Delete leading and trailing silent blocks : No
Null samples used in CRC calculations : Yes
Used interface : Native Win32 interface for Win NT & 2000

Used output format : Internal WAV Routines
Sample format : 44.100 Hz; 16 Bit; Stereo


TOC of the extracted CD

Track | Start | Length | Start sector | End sector
––––––––––––––––––––––––––––-
1 | 0:00.00 | 2:49.21 | 0 | 12695
2 | 2:49.21 | 2:06.13 | 12696 | 22158
3 | 4:55.34 | 2:41.71 | 22159 | 34304
4 | 7:37.30 | 2:45.02 | 34305 | 46681
5 | 10:22.32 | 2:39.31 | 46682 | 58637
6 | 13:01.63 | 2:58.14 | 58638 | 72001
7 | 16:00.02 | 2:26.30 | 72002 | 82981
8 | 18:26.32 | 2:31.73 | 82982 | 94379
9 | 20:58.30 | 3:15.26 | 94380 | 109030
10 | 24:13.56 | 4:09.45 | 109031 | 127750
11 | 28:23.26 | 3:33.32 | 127751 | 143757
12 | 31:56.58 | 3:22.67 | 143758 | 158974
13 | 35:19.50 | 3:17.37 | 158975 | 173786
14 | 38:37.12 | 4:07.73 | 173787 | 192384
15 | 42:45.10 | 3:37.63 | 192385 | 208722
16 | 46:22.73 | 3:03.40 | 208723 | 222487
17 | 49:26.38 | 3:59.32 | 222488 | 240444
18 | 53:25.70 | 4:45.37 | 240445 | 261856


Range status and errors

Selected range

Filename C:\Documents and Settings\VB\My Documents\BARIN99\The Birds - The Collector's Guide To Rare British Birds\The Birds - The Collector's Guide To Rare British Birds.wav

Peak level 99.6 %
Extraction speed 0.5 X
Range quality 100.0 %
Copy CRC C399A1D8
Copy OK

No errors occurred


AccurateRip summary

Track 1 accurately ripped (confidence 2) [E783E476]
Track 2 accurately ripped (confidence 2) [6823E36D]
Track 3 accurately ripped (confidence 2) [D2F38410]
Track 4 accurately ripped (confidence 2) [D6449191]
Track 5 accurately ripped (confidence 2) [11C078F5]
Track 6 accurately ripped (confidence 2) [5BB54107]
Track 7 accurately ripped (confidence 2) [AA6B912D]
Track 8 accurately ripped (confidence 2) [8BE373BB]
Track 9 accurately ripped (confidence 2) [B790DD83]
Track 10 cannot be verified as accurate (confidence 6) [B9558B52], AccurateRip returned [809A3F08]
Track 11 accurately ripped (confidence 2) [E5806199]
Track 12 accurately ripped (confidence 2) [61F9E656]
Track 13 accurately ripped (confidence 2) [BF41F4AA]
Track 14 accurately ripped (confidence 2) [74636AA5]
Track 15 accurately ripped (confidence 2) [49085777]
Track 16 accurately ripped (confidence 2) [C77F5238]
Track 17 accurately ripped (confidence 2) [46104506]
Track 18 accurately ripped (confidence 2) [2CB6BD7A]

17 track(s) accurately ripped
1 track(s) could not be verified as accurate

Some tracks could not be verified as accurate

End of status report

[CUETools log; Date: 11.09.2019 15:33:16; Version: 2.1.4]
[CTDB TOCID: 4MDz7rof8sQzxRdVUU54mf0h5qI-] found.
Track | CTDB Status
1 | (35/35) Accurately ripped
2 | (35/35) Accurately ripped
3 | (35/35) Accurately ripped
4 | (35/35) Accurately ripped
5 | (35/35) Accurately ripped
6 | (35/35) Accurately ripped
7 | (35/35) Accurately ripped
8 | (35/35) Accurately ripped
9 | (35/35) Accurately ripped
10 | (35/35) Differs in 12 samples @01:15:46
11 | (35/35) Accurately ripped
12 | (35/35) Accurately ripped
13 | (35/35) Accurately ripped
14 | (35/35) Accurately ripped
15 | (35/35) Accurately ripped
16 | (35/35) Accurately ripped
17 | (35/35) Accurately ripped
18 | (35/35) Accurately ripped
[AccurateRip ID: 00228804-01d6ee3e-040da312] found.
Track [ CRC | V2 ] Status
01 [e783e476|adff9a22] (02+07/29) Accurately ripped
02 [6823e36d|5fd7a2f7] (02+07/28) Accurately ripped
03 [d2f38410|379b6c9f] (02+07/28) Accurately ripped
04 [d6449191|d117de3e] (02+07/28) Accurately ripped
05 [11c078f5|82d5a3ac] (02+07/27) Accurately ripped
06 [5bb54107|d4eadb4e] (02+07/28) Accurately ripped
07 [aa6b912d|dae411a1] (02+06/26) Accurately ripped
08 [8be373bb|61e46860] (02+06/26) Accurately ripped
09 [b790dd83|2be6b950] (02+07/27) Accurately ripped
10 [b9558b52|ac94c890] (00+00/28) No match
11 [e5806199|6f9566b7] (02+07/28) Accurately ripped
12 [61f9e656|f94da954] (02+07/28) Accurately ripped
13 [bf41f4aa|d1100d0f] (02+06/26) Accurately ripped
14 [74636aa5|ec310e11] (02+07/27) Accurately ripped
15 [49085777|7b4e5a29] (02+06/27) Accurately ripped
16 [c77f5238|eb1552ac] (02+06/25) Accurately ripped
17 [46104506|6aef252d] (02+05/25) Accurately ripped
18 [2cb6bd7a|034e208d] (02+07/29) Accurately ripped
Offsetted by -652:
01 [5eaab8fe] (02/29) Accurately ripped
02 [015bc8cb] (02/28) Accurately ripped
03 [ce62326b] (02/28) Accurately ripped
04 [8b8e58bc] (02/28) Accurately ripped
05 [25499afd] (02/27) Accurately ripped
06 [5c4c5f7b] (02/28) Accurately ripped
07 [5a14a9b5] (02/26) Accurately ripped
08 [e1bba68f] (02/26) Accurately ripped
09 [a0efb697] (02/27) Accurately ripped
10 [7ec0a95a] (00/28) No match (V2 was not tested)
11 [cce4fdb9] (02/28) Accurately ripped
12 [c428ce23] (02/28) Accurately ripped
13 [186f6619] (02/26) Accurately ripped
14 [ddbcfab9] (02/27) Accurately ripped
15 [e0038503] (02/27) Accurately ripped
16 [8e1e6b1f] (02/25) Accurately ripped
17 [955db5a7] (02/25) Accurately ripped
18 [ed682736] (02/29) Accurately ripped
Offsetted by 12:
01 [5e4136ee] (06/29) Accurately ripped
02 [cc062226] (06/28) Accurately ripped
03 [7aa3959f] (06/28) Accurately ripped
04 [61a695ed] (06/28) Accurately ripped
05 [0e404ded] (05/27) Accurately ripped
06 [36010013] (06/28) Accurately ripped
07 [dfba1fa5] (06/26) Accurately ripped
08 [0fce3267] (06/26) Accurately ripped
09 [5ce3edef] (05/27) Accurately ripped
10 [f617e44a] (00/28) No match (V2 was not tested)
11 [d522d167] (06/28) Accurately ripped
12 [d3fe1631] (06/28) Accurately ripped
13 [13dab52d] (06/26) Accurately ripped
14 [e92db0d1] (06/27) Accurately ripped
15 [8cbbf593] (06/27) Accurately ripped
16 [4f8eeeba] (05/25) Accurately ripped
17 [b782cc57] (06/25) Accurately ripped
18 [0cd44903] (06/29) Accurately ripped

Track Peak [ CRC32 ] [W/O NULL] [ LOG ]
– 99,6 [C399A1D8] [BE12275B] CRC32
01 94,7 [7BDB730C] [B2550F84]
02 95,7 [4D52B483] [2D1BC826]
03 89,7 [96B7F493] [6FC3222F]
04 93,3 [715D8599] [F0203C83]
05 93,0 [7D87CF8D] [B37B2A7B]
06 89,1 [D5B1C2CF] [47A778A5]
07 99,6 [7AE54F57] [8E68370F]
08 95,9 [367AC5B6] [652CA9D1]
09 96,0 [C8031DD5] [764C4E64]
10 95,8 [B4017B77] [18CE414B]
11 96,0 [D55DD1F7] [BC5A9799]
12 95,9 [1078C5E8] [CF04C5CF]
13 95,9 [F0DF4E0F] [69B7AFA3]
14 95,7 [8B3D891A] [FF95B07B]
15 95,5 [36784BC3] [C2B5383C]
16 95,9 [A7F30C35] [EDD69510]
17 95,1 [F8F8F5E9] [89B2ED40]
18 95,1 [1EDFDAA2] [EDB434B2]

Thanks to barin99