Tags
Language
Tags
March 2024
Su Mo Tu We Th Fr Sa
25 26 27 28 29 1 2
3 4 5 6 7 8 9
10 11 12 13 14 15 16
17 18 19 20 21 22 23
24 25 26 27 28 29 30
31 1 2 3 4 5 6

The Marvelettes - Forever: The Complete Motown Albums Vol. 1 (Remastered) (2009)

Posted By: Rtax
The Marvelettes - Forever: The Complete Motown Albums Vol. 1 (Remastered) (2009)

The Marvelettes - Forever: The Complete Motown Albums Vol. 1 (Remastered) (2009)
EAC Rip | FLAC (tracks, cue, log) - 893 MB | MP3 CBR 320 kbps - 515 MB
3:44:57 | Rhythm & Blues, Soul | Label: Hip-O Select

Hip-O Select's 2009 triple-disc set Forever: The Complete Motown Albums, Vol. 1 rounds up all the LPs the Marvelettes released between 1961 and 1963 – 1961's Please Mr. Postman, The Marvelettes Sing, and Playboy both released in 1962, 1963's The Marvelous Marvelettes, and On Stage: Recorded Live – plus the stereo version of 1966's Greatest Hits and a bunch of mono singles and rarities. The Vol. 1 in the set signals that the Marvelettes had a second run at Motown later in the decade, highlighted by the this "The Hunter Gets Captured by the Game" and "My Baby Must Be a Magician," but this has everything from the band's prime period, running from 1961 to 1965, the time when they rivaled the Supremes as the greatest girl group Motown had to offer.

That rivalry wasn't merely commercial but creative, too, with their very best singles – "Please Mr. Postman," "Beechwood 4-5789," "Too Many Fish in the Sea," "Danger: Heartbreak Dead Ahead" – holding their own with the Supremes, but the revelation of Forever: The Complete Motown Albums, Vol. 1 is that the trio had a consistent catalog, sounding beguiling when they covered hits by Clyde McPhatter ("Lover Please") and Roy Orbison ("Dream Baby") and benefiting tremendously from Motown's deep songwriting bench, cutting lots of tunes from Smokey Robinson, Norman Whitfield, Brian Holland, and Lamont Dozier and Berry Gordy, many of them never turning into hits but existing as strong examples of the label's craft. If anything, this set is a testament to the power of Motown's assembly line, with the writers, producers, and musicians working steadily, always attempting to better their last effort, always blessed by the harmonies and the charisma of the Marvelettes, a group that may have lacked the magnetism of the Supremes but compensated by their girl-next-door charm, something that shines through all three discs of this set.

Tracklist
Disc1
Please Mr. Postman
1. Angel
2. I Want A Guy
3. Please Mr. Postman
4. So Long Baby
5. I Know How It Feels
6. Way Over There
7. Happy Days
8. You Don't Want Me No More
9. All The Love I've Got
10. Whisper
11. Oh I Apologize

The Marvelettes Sing
12. Mashed Potato Time
13. Love Letters
14. The One Who Really Loves You
15. Twistin' The Night Away
16. Hey Baby
17. Twistin' Postman
18. Good Luck Charm
19. Slow Twistin'
20. Lover Please
21. Dream Baby

Playboy
22. Playboy
23. Mix It Up
24. Beechwood 4-5789
25. I'm Hooked
26. I Think I Can Change You
27. Forever
28. Someday, Someway
29. Goddess Of Love
30. You Should Know
31. (I've Got To) Cry Over You

Disc2
The Marvelous Marvelettes
1. Strange I Know
2. I Forgot About You
3. Locking Up My Heart
4. Which Way Did He Go
5. Silly Boy
6. It's Gonna Take A Lot Of Doing (To Undo All The Damage That You've Done)
7. Smart Aleck
8. My Daddy Knows Best
9. Too Strong To Be Strung Along
10. Why Must You Go

On Stage: Recorded Live
11. Beechwood 4-5789
12. Strange I Know
13. Someday Someway
14. Locking Up My Heart
15. Twistin' Postman
16. Tossin' And Turnin'
17. So Long Baby
18. Playboy

Bonus Tracks
19. Strange I Know
20. Medley: Please Mr. Postman/Strange I Know/Someday, Someway
21. Tie A String Around Your Finger
22. Too Hurt To Cry, Too Much In Love To Say Goodbye
23. Come On Home - The Darnells
24. Finders Keepers, Losers Weepers
25. Knock On My Door
26. On The Other Side Of Town
27. Because I Love Him
28. Little Girls Grow Up

Disc3
Greatest Hits (Stereo Version)
1. Don't Mess With Bill
2. You're My Remedy
3. Locking Up My Heart
4. As Long As I Know He's Mine
5. Too Many Fish In The Sea
6. Danger Heartbreak Dead Ahead
7. Please Mr. Postman
8. Playboy
9. Strange I Know
10. Forever
11. Twistin' Postman
12. Beechwood 4-5789

Mono Singles & Rare Sides
13. As Long As I Know He's Mine
14. He Won't Be True (Little Girl Blue)
15. He's A Good Guy (Yes He Is)
16. You're My Remedy
17. A Little Bit Of Sympathy, A Little Bit Of Love
18. Too Many Fish In The Sea
19. A Need For Love
20. I'll Keep Holding On
21. No Time For Tears
22. Danger Heartbreak Dead Ahead
23. Your Cheating Ways
24. Don't Mess With Bill
25. Anything You Wanna Do
26. I Should Have Known Better
27. I Just Can't Let Him Down
28. Maybe I Dried My Tears For The Last Time
Exact Audio Copy V1.0 beta 4 from 7. December 2014

EAC extraction logfile from 17. April 2015, 9:30

The Marvelettes / Forever: The Complete Motown Albums - Vol. 1 (disc 1)

Used drive : hp CDDVDW SH-216BB Adapter: 1 ID: 0

Read mode : Secure
Utilize accurate stream : Yes
Defeat audio cache : Yes
Make use of C2 pointers : No

Read offset correction : 6
Overread into Lead-In and Lead-Out : No
Fill up missing offset samples with silence : Yes
Delete leading and trailing silent blocks : No
Null samples used in CRC calculations : Yes
Used interface : Native Win32 interface for Win NT & 2000
Gap handling : Appended to previous track

Used output format : User Defined Encoder
Selected bitrate : 1024 kBit/s
Quality : High
Add ID3 tag : No
Command line compressor : C:\Program Files (x86)\Exact Audio Copy\Flac\flac.exe
Additional command line options : -8 -V -T "artist=%artist%" -T "title=%title%" -T "album=%albumtitle%" -T "date=%year%" -T "tracknumber=%tracknr%" -T "genre=%genre%" %source%


TOC of the extracted CD

Track | Start | Length | Start sector | End sector
––––––––––––––––––––––––––––-
1 | 0:00.00 | 2:31.73 | 0 | 11397
2 | 2:31.73 | 2:38.56 | 11398 | 23303
3 | 5:10.54 | 2:29.20 | 23304 | 34498
4 | 7:39.74 | 2:51.54 | 34499 | 47377
5 | 10:31.53 | 2:56.57 | 47378 | 60634
6 | 13:28.35 | 2:25.05 | 60635 | 71514
7 | 15:53.40 | 2:06.47 | 71515 | 81011
8 | 18:00.12 | 2:38.00 | 81012 | 92861
9 | 20:38.12 | 2:27.00 | 92862 | 103886
10 | 23:05.12 | 2:36.42 | 103887 | 115628
11 | 25:41.54 | 2:51.38 | 115629 | 128491
12 | 28:33.17 | 2:16.00 | 128492 | 138691
13 | 30:49.17 | 2:29.08 | 138692 | 149874
14 | 33:18.25 | 2:24.48 | 149875 | 160722
15 | 35:42.73 | 2:33.00 | 160723 | 172197
16 | 38:15.73 | 2:15.02 | 172198 | 182324
17 | 40:31.00 | 2:29.20 | 182325 | 193519
18 | 43:00.20 | 2:42.23 | 193520 | 205692
19 | 45:42.43 | 2:13.52 | 205693 | 215719
20 | 47:56.20 | 2:16.60 | 215720 | 225979
21 | 50:13.05 | 2:30.08 | 225980 | 237237
22 | 52:43.13 | 2:46.08 | 237238 | 249695
23 | 55:29.21 | 2:51.07 | 249696 | 262527
24 | 58:20.28 | 2:14.68 | 262528 | 272645
25 | 60:35.21 | 2:25.27 | 272646 | 283547
26 | 63:00.48 | 2:47.48 | 283548 | 296120
27 | 65:48.21 | 2:23.00 | 296121 | 306845
28 | 68:11.21 | 2:37.74 | 306846 | 318694
29 | 70:49.20 | 2:46.20 | 318695 | 331164
30 | 73:35.40 | 2:26.62 | 331165 | 342176
31 | 76:02.27 | 2:37.13 | 342177 | 353964


Track 1

Filename C:\Users\BGorton\Desktop\marvs\01 - Angel.wav

Pre-gap length 0:00:02.00

Peak level 98.2 %
Extraction speed 2.6 X
Track quality 100.0 %
Test CRC D05D5F69
Copy CRC D05D5F69
Accurately ripped (confidence 7) [90DA8CE3] (AR v2)
Copy OK

Track 2

Filename C:\Users\BGorton\Desktop\marvs\02 - I Want A Guy.wav

Pre-gap length 0:00:01.18

Peak level 100.0 %
Extraction speed 2.9 X
Track quality 100.0 %
Test CRC 3E39F49C
Copy CRC 3E39F49C
Accurately ripped (confidence 7) [1C904F83] (AR v2)
Copy OK

Track 3

Filename C:\Users\BGorton\Desktop\marvs\03 - Please Mr. Postman.wav

Pre-gap length 0:00:01.16

Peak level 84.0 %
Extraction speed 3.0 X
Track quality 100.0 %
Test CRC 206F9860
Copy CRC 206F9860
Accurately ripped (confidence 7) [EC5BC20C] (AR v2)
Copy OK

Track 4

Filename C:\Users\BGorton\Desktop\marvs\04 - So Long Baby.wav

Pre-gap length 0:00:01.17

Peak level 100.0 %
Extraction speed 3.2 X
Track quality 100.0 %
Test CRC 1D71E9C1
Copy CRC 1D71E9C1
Accurately ripped (confidence 7) [C82C7CC7] (AR v2)
Copy OK

Track 5

Filename C:\Users\BGorton\Desktop\marvs\05 - I Know How It Feels.wav

Pre-gap length 0:00:01.18

Peak level 100.0 %
Extraction speed 3.4 X
Track quality 100.0 %
Test CRC B3544B6B
Copy CRC B3544B6B
Accurately ripped (confidence 7) [07BC7C3D] (AR v2)
Copy OK

Track 6

Filename C:\Users\BGorton\Desktop\marvs\06 - Way Over There.wav

Peak level 100.0 %
Extraction speed 2.3 X
Track quality 99.9 %
Test CRC 8D98F4C3
Copy CRC 8D98F4C3
Accurately ripped (confidence 7) [CE38EF56] (AR v2)
Copy OK

Track 7

Filename C:\Users\BGorton\Desktop\marvs\07 - Happy Days.wav

Pre-gap length 0:00:01.19

Peak level 99.1 %
Extraction speed 3.4 X
Track quality 100.0 %
Test CRC AB75AC31
Copy CRC AB75AC31
Accurately ripped (confidence 7) [495320E7] (AR v2)
Copy OK

Track 8

Filename C:\Users\BGorton\Desktop\marvs\08 - You Don't Want Me No More.wav

Pre-gap length 0:00:01.07

Peak level 99.4 %
Extraction speed 2.6 X
Track quality 99.9 %
Test CRC D4915090
Copy CRC D4915090
Accurately ripped (confidence 7) [24B9756D] (AR v2)
Copy OK

Track 9

Filename C:\Users\BGorton\Desktop\marvs\09 - All The Love I Got.wav

Pre-gap length 0:00:01.16

Peak level 98.9 %
Extraction speed 3.7 X
Track quality 100.0 %
Test CRC 16DF253A
Copy CRC 16DF253A
Accurately ripped (confidence 7) [85865505] (AR v2)
Copy OK

Track 10

Filename C:\Users\BGorton\Desktop\marvs\10 - Whisper.wav

Pre-gap length 0:00:01.26

Peak level 100.0 %
Extraction speed 3.9 X
Track quality 100.0 %
Test CRC 0532C5C2
Copy CRC 0532C5C2
Accurately ripped (confidence 7) [7DA53A8E] (AR v2)
Copy OK

Track 11

Filename C:\Users\BGorton\Desktop\marvs\11 - I Apologize.wav

Pre-gap length 0:00:02.55

Peak level 100.0 %
Extraction speed 4.1 X
Track quality 100.0 %
Test CRC DFEAEF97
Copy CRC DFEAEF97
Accurately ripped (confidence 7) [5947E959] (AR v2)
Copy OK

Track 12

Filename C:\Users\BGorton\Desktop\marvs\12 - Mashed Potato Time.wav

Pre-gap length 0:00:01.13

Peak level 100.0 %
Extraction speed 4.0 X
Track quality 100.0 %
Test CRC 3261003C
Copy CRC 3261003C
Accurately ripped (confidence 7) [76382ED8] (AR v2)
Copy OK

Track 13

Filename C:\Users\BGorton\Desktop\marvs\13 - Love Letters.wav

Pre-gap length 0:00:01.18

Peak level 100.0 %
Extraction speed 4.2 X
Track quality 100.0 %
Test CRC 2D9C40F5
Copy CRC 2D9C40F5
Accurately ripped (confidence 7) [3EEC84BC] (AR v2)
Copy OK

Track 14

Filename C:\Users\BGorton\Desktop\marvs\14 - The One Who Really Loves You.wav

Pre-gap length 0:00:01.10

Peak level 100.0 %
Extraction speed 4.2 X
Track quality 100.0 %
Test CRC 828CED81
Copy CRC 828CED81
Accurately ripped (confidence 7) [01D2C2E7] (AR v2)
Copy OK

Track 15

Filename C:\Users\BGorton\Desktop\marvs\15 - Twistin' The Night Away.wav

Pre-gap length 0:00:01.07

Peak level 100.0 %
Extraction speed 4.3 X
Track quality 100.0 %
Test CRC 196D751B
Copy CRC 196D751B
Accurately ripped (confidence 7) [39E237D6] (AR v2)
Copy OK

Track 16

Filename C:\Users\BGorton\Desktop\marvs\16 - Hey! Baby.wav

Pre-gap length 0:00:01.17

Peak level 99.4 %
Extraction speed 4.4 X
Track quality 100.0 %
Test CRC 39FE1FE5
Copy CRC 39FE1FE5
Accurately ripped (confidence 7) [B9793F65] (AR v2)
Copy OK

Track 17

Filename C:\Users\BGorton\Desktop\marvs\17 - Twistin' Postman.wav

Pre-gap length 0:00:01.06

Peak level 100.0 %
Extraction speed 4.5 X
Track quality 100.0 %
Test CRC 287AB56B
Copy CRC 287AB56B
Accurately ripped (confidence 7) [AC51E0CE] (AR v2)
Copy OK

Track 18

Filename C:\Users\BGorton\Desktop\marvs\18 - Good Luck Charm.wav

Pre-gap length 0:00:01.10

Peak level 99.3 %
Extraction speed 3.3 X
Track quality 99.9 %
Test CRC A371C427
Copy CRC A371C427
Accurately ripped (confidence 7) [8D236ACF] (AR v2)
Copy OK

Track 19

Filename C:\Users\BGorton\Desktop\marvs\19 - Slow Twistin'.wav

Pre-gap length 0:00:01.16

Peak level 99.3 %
Extraction speed 4.6 X
Track quality 100.0 %
Test CRC 1F552916
Copy CRC 1F552916
Accurately ripped (confidence 7) [7C37049B] (AR v2)
Copy OK

Track 20

Filename C:\Users\BGorton\Desktop\marvs\20 - Lover Please.wav

Pre-gap length 0:00:01.19

Peak level 100.0 %
Extraction speed 3.1 X
Track quality 99.9 %
Test CRC 548FBF01
Copy CRC 548FBF01
Accurately ripped (confidence 7) [0AAC7C87] (AR v2)
Copy OK

Track 21

Filename C:\Users\BGorton\Desktop\marvs\21 - Dream Baby (How Long Must I Dream).wav

Pre-gap length 0:00:01.09

Peak level 99.6 %
Extraction speed 4.9 X
Track quality 100.0 %
Test CRC DBB97A4D
Copy CRC DBB97A4D
Accurately ripped (confidence 7) [E81D6AB1] (AR v2)
Copy OK

Track 22

Filename C:\Users\BGorton\Desktop\marvs\22 - Playboy.wav

Pre-gap length 0:00:02.65

Peak level 100.0 %
Extraction speed 5.1 X
Track quality 100.0 %
Test CRC DA7C128C
Copy CRC DA7C128C
Accurately ripped (confidence 7) [4F94E5A8] (AR v2)
Copy OK

Track 23

Filename C:\Users\BGorton\Desktop\marvs\23 - Mix It Up.wav

Pre-gap length 0:00:01.20

Peak level 100.0 %
Extraction speed 5.2 X
Track quality 100.0 %
Test CRC A2F31EF8
Copy CRC A2F31EF8
Accurately ripped (confidence 7) [81C16B5F] (AR v2)
Copy OK

Track 24

Filename C:\Users\BGorton\Desktop\marvs\24 - Beechwood 4-5789.wav

Pre-gap length 0:00:01.06

Peak level 100.0 %
Extraction speed 5.0 X
Track quality 100.0 %
Test CRC C3C99FA3
Copy CRC C3C99FA3
Accurately ripped (confidence 7) [F9A12316] (AR v2)
Copy OK

Track 25

Filename C:\Users\BGorton\Desktop\marvs\25 - I'm Hooked.wav

Pre-gap length 0:00:01.22

Peak level 96.6 %
Extraction speed 5.2 X
Track quality 100.0 %
Test CRC 694BD7EC
Copy CRC 694BD7EC
Accurately ripped (confidence 7) [6F1DF396] (AR v2)
Copy OK

Track 26

Filename C:\Users\BGorton\Desktop\marvs\26 - I Think I Can Change You.wav

Pre-gap length 0:00:01.05

Peak level 100.0 %
Extraction speed 3.8 X
Track quality 99.9 %
Test CRC F02E01BE
Copy CRC F02E01BE
Accurately ripped (confidence 7) [F8A91656] (AR v2)
Copy OK

Track 27

Filename C:\Users\BGorton\Desktop\marvs\27 - Forever.wav

Pre-gap length 0:00:01.27

Peak level 94.0 %
Extraction speed 5.3 X
Track quality 100.0 %
Test CRC 65E20CDF
Copy CRC 65E20CDF
Accurately ripped (confidence 7) [B6A929E5] (AR v2)
Copy OK

Track 28

Filename C:\Users\BGorton\Desktop\marvs\28 - Someday, Someway.wav

Pre-gap length 0:00:01.19

Peak level 100.0 %
Extraction speed 5.5 X
Track quality 100.0 %
Test CRC 4ED3802F
Copy CRC 4ED3802F
Accurately ripped (confidence 7) [9AEA38D3] (AR v2)
Copy OK

Track 29

Filename C:\Users\BGorton\Desktop\marvs\29 - Goddess Of Love.wav

Pre-gap length 0:00:01.11

Peak level 94.0 %
Extraction speed 5.6 X
Track quality 100.0 %
Test CRC 46565A26
Copy CRC 46565A26
Accurately ripped (confidence 6) [6379E86B] (AR v2)
Copy OK

Track 30

Filename C:\Users\BGorton\Desktop\marvs\30 - You Should Know.wav

Pre-gap length 0:00:01.08

Peak level 93.4 %
Extraction speed 5.5 X
Track quality 100.0 %
Test CRC 17D5FB52
Copy CRC 17D5FB52
Accurately ripped (confidence 6) [B9A0D125] (AR v2)
Copy OK

Track 31

Filename C:\Users\BGorton\Desktop\marvs\31 - (I've Got To) Cry Over You.wav

Pre-gap length 0:00:01.03

Peak level 94.0 %
Extraction speed 5.7 X
Track quality 100.0 %
Test CRC 0B36959A
Copy CRC 0B36959A
Accurately ripped (confidence 7) [4FE6A200] (AR v2)
Copy OK


All tracks accurately ripped

No errors occurred

End of status report

–– CUETools DB Plugin V2.1.4

[CTDB TOCID: jed1EAb5iGB8qLxTvXO2EcuOBcQ-] found
Submit result: jed1EAb5iGB8qLxTvXO2EcuOBcQ- has been confirmed
Track | CTDB Status
1 | (2/2) Accurately ripped
2 | (2/2) Accurately ripped
3 | (2/2) Accurately ripped
4 | (2/2) Accurately ripped
5 | (2/2) Accurately ripped
6 | (2/2) Accurately ripped
7 | (2/2) Accurately ripped
8 | (2/2) Accurately ripped
9 | (2/2) Accurately ripped
10 | (2/2) Accurately ripped
11 | (2/2) Accurately ripped
12 | (2/2) Accurately ripped
13 | (2/2) Accurately ripped
14 | (2/2) Accurately ripped
15 | (2/2) Accurately ripped
16 | (2/2) Accurately ripped
17 | (2/2) Accurately ripped
18 | (2/2) Accurately ripped
19 | (2/2) Accurately ripped
20 | (2/2) Accurately ripped
21 | (2/2) Accurately ripped
22 | (2/2) Accurately ripped
23 | (2/2) Accurately ripped
24 | (2/2) Accurately ripped
25 | (2/2) Accurately ripped
26 | (2/2) Accurately ripped
27 | (2/2) Accurately ripped
28 | (2/2) Accurately ripped
29 | (2/2) Accurately ripped
30 | (2/2) Accurately ripped
31 | (2/2) Accurately ripped


==== Log checksum A44E48B004BFF7F6757BC56E666B9D903E40CEFBFBD95B63BB97E90E050049C8 ====


Exact Audio Copy V1.0 beta 4 from 7. December 2014

EAC extraction logfile from 17. April 2015, 10:02

The Marvelettes / Forever: The Complete Motown Albums - Vol. 1 (disc 2)

Used drive : hp CDDVDW SH-216BB Adapter: 1 ID: 0

Read mode : Secure
Utilize accurate stream : Yes
Defeat audio cache : Yes
Make use of C2 pointers : No

Read offset correction : 6
Overread into Lead-In and Lead-Out : No
Fill up missing offset samples with silence : Yes
Delete leading and trailing silent blocks : No
Null samples used in CRC calculations : Yes
Used interface : Native Win32 interface for Win NT & 2000
Gap handling : Appended to previous track

Used output format : User Defined Encoder
Selected bitrate : 1024 kBit/s
Quality : High
Add ID3 tag : No
Command line compressor : C:\Program Files (x86)\Exact Audio Copy\Flac\flac.exe
Additional command line options : -8 -V -T "artist=%artist%" -T "title=%title%" -T "album=%albumtitle%" -T "date=%year%" -T "tracknumber=%tracknr%" -T "genre=%genre%" %source%


TOC of the extracted CD

Track | Start | Length | Start sector | End sector
––––––––––––––––––––––––––––-
1 | 0:00.00 | 2:38.50 | 0 | 11899
2 | 2:38.50 | 2:56.32 | 11900 | 25131
3 | 5:35.07 | 2:23.00 | 25132 | 35856
4 | 7:58.07 | 2:44.66 | 35857 | 48222
5 | 10:42.73 | 2:14.20 | 48223 | 58292
6 | 12:57.18 | 2:33.32 | 58293 | 69799
7 | 15:30.50 | 2:52.59 | 69800 | 82758
8 | 18:23.34 | 2:29.13 | 82759 | 93946
9 | 20:52.47 | 2:23.00 | 93947 | 104671
10 | 23:15.47 | 2:12.13 | 104672 | 114584
11 | 25:27.60 | 2:57.53 | 114585 | 127912
12 | 28:25.38 | 3:31.05 | 127913 | 143742
13 | 31:56.43 | 2:46.55 | 143743 | 156247
14 | 34:43.23 | 2:43.10 | 156248 | 168482
15 | 37:26.33 | 2:21.35 | 168483 | 179092
16 | 39:47.68 | 2:21.27 | 179093 | 189694
17 | 42:09.20 | 2:51.14 | 189695 | 202533
18 | 45:00.34 | 2:08.26 | 202534 | 212159
19 | 47:08.60 | 2:54.62 | 212160 | 225271
20 | 50:03.47 | 3:46.18 | 225272 | 242239
21 | 53:49.65 | 2:51.52 | 242240 | 255116
22 | 56:41.42 | 2:16.70 | 255117 | 265386
23 | 58:58.37 | 2:20.07 | 265387 | 275893
24 | 61:18.44 | 2:24.40 | 275894 | 286733
25 | 63:43.09 | 2:42.26 | 286734 | 298909
26 | 66:25.35 | 2:14.14 | 298910 | 308973
27 | 68:39.49 | 2:38.35 | 308974 | 320858
28 | 71:18.09 | 2:41.33 | 320859 | 332966


Track 1

Filename C:\Users\BGorton\Desktop\The Marvelettes - Forever (The Complete Motown Albums Vol. 1) (2009) [FLAC]\Disc 2\01 - Strange I Know.wav

Pre-gap length 0:00:02.00

Peak level 99.9 %
Extraction speed 3.3 X
Track quality 99.9 %
Test CRC D872F599
Copy CRC D872F599
Accurately ripped (confidence 7) [C6AC6CBF] (AR v2)
Copy OK

Track 2

Filename C:\Users\BGorton\Desktop\The Marvelettes - Forever (The Complete Motown Albums Vol. 1) (2009) [FLAC]\Disc 2\02 - I Forgot About You.wav

Pre-gap length 0:00:01.06

Peak level 100.0 %
Extraction speed 4.8 X
Track quality 100.0 %
Test CRC C99423B2
Copy CRC C99423B2
Accurately ripped (confidence 7) [2AFD9364] (AR v2)
Copy OK

Track 3

Filename C:\Users\BGorton\Desktop\The Marvelettes - Forever (The Complete Motown Albums Vol. 1) (2009) [FLAC]\Disc 2\03 - Locking Up My Heart.wav

Pre-gap length 0:00:01.05

Peak level 94.3 %
Extraction speed 4.8 X
Track quality 100.0 %
Test CRC C18CE23D
Copy CRC C18CE23D
Accurately ripped (confidence 7) [7D3E3725] (AR v2)
Copy OK

Track 4

Filename C:\Users\BGorton\Desktop\The Marvelettes - Forever (The Complete Motown Albums Vol. 1) (2009) [FLAC]\Disc 2\04 - Which Way Did He Go.wav

Pre-gap length 0:00:01.16

Peak level 97.9 %
Extraction speed 5.2 X
Track quality 100.0 %
Test CRC ACD44E7E
Copy CRC ACD44E7E
Accurately ripped (confidence 7) [3C997C14] (AR v2)
Copy OK

Track 5

Filename C:\Users\BGorton\Desktop\The Marvelettes - Forever (The Complete Motown Albums Vol. 1) (2009) [FLAC]\Disc 2\05 - Silly Bo.wav

Pre-gap length 0:00:01.12

Peak level 92.2 %
Extraction speed 5.2 X
Track quality 100.0 %
Test CRC EC0DA45B
Copy CRC EC0DA45B
Accurately ripped (confidence 7) [A9CE3058] (AR v2)
Copy OK

Track 6

Filename C:\Users\BGorton\Desktop\The Marvelettes - Forever (The Complete Motown Albums Vol. 1) (2009) [FLAC]\Disc 2\06 - It's Gonna Take A Lot Of Doing (To Undo All The Damage That You've Done).wav

Pre-gap length 0:00:01.20

Peak level 92.2 %
Extraction speed 5.6 X
Track quality 100.0 %
Test CRC E0ADB84F
Copy CRC E0ADB84F
Accurately ripped (confidence 7) [9C984698] (AR v2)
Copy OK

Track 7

Filename C:\Users\BGorton\Desktop\The Marvelettes - Forever (The Complete Motown Albums Vol. 1) (2009) [FLAC]\Disc 2\07 - Smart Aleck.wav

Pre-gap length 0:00:01.05

Peak level 100.0 %
Extraction speed 6.0 X
Track quality 100.0 %
Test CRC 3D97B111
Copy CRC 3D97B111
Accurately ripped (confidence 7) [9BC425D2] (AR v2)
Copy OK

Track 8

Filename C:\Users\BGorton\Desktop\The Marvelettes - Forever (The Complete Motown Albums Vol. 1) (2009) [FLAC]\Disc 2\08 - My Daddy Knows Best.wav

Pre-gap length 0:00:01.05

Peak level 100.0 %
Extraction speed 6.0 X
Track quality 100.0 %
Test CRC 449B7B61
Copy CRC 449B7B61
Accurately ripped (confidence 7) [072E5B52] (AR v2)
Copy OK

Track 9

Filename C:\Users\BGorton\Desktop\The Marvelettes - Forever (The Complete Motown Albums Vol. 1) (2009) [FLAC]\Disc 2\09 - Too Strong To Be Strung Along.wav

Pre-gap length 0:00:01.05

Peak level 100.0 %
Extraction speed 6.0 X
Track quality 100.0 %
Test CRC 4525C185
Copy CRC 4525C185
Accurately ripped (confidence 7) [85A5F3C6] (AR v2)
Copy OK

Track 10

Filename C:\Users\BGorton\Desktop\The Marvelettes - Forever (The Complete Motown Albums Vol. 1) (2009) [FLAC]\Disc 2\10 - Why Must You Go.wav

Pre-gap length 0:00:01.10

Peak level 98.6 %
Extraction speed 6.1 X
Track quality 100.0 %
Test CRC E449FC91
Copy CRC E449FC91
Accurately ripped (confidence 7) [F5E7FEAF] (AR v2)
Copy OK

Track 11

Filename C:\Users\BGorton\Desktop\The Marvelettes - Forever (The Complete Motown Albums Vol. 1) (2009) [FLAC]\Disc 2\11 - Beechwood 4-5789 (live - Regal Theater, Chicago).wav

Pre-gap length 0:00:02.63

Peak level 80.2 %
Extraction speed 6.7 X
Track quality 100.0 %
Test CRC A57F490A
Copy CRC A57F490A
Accurately ripped (confidence 7) [BDFF1717] (AR v2)
Copy OK

Track 12

Filename C:\Users\BGorton\Desktop\The Marvelettes - Forever (The Complete Motown Albums Vol. 1) (2009) [FLAC]\Disc 2\12 - Strange I Know (live - Regal Theater, Chicago).wav

Peak level 80.0 %
Extraction speed 7.1 X
Track quality 100.0 %
Test CRC 55C96A83
Copy CRC 55C96A83
Accurately ripped (confidence 7) [B3B212E5] (AR v2)
Copy OK

Track 13

Filename C:\Users\BGorton\Desktop\The Marvelettes - Forever (The Complete Motown Albums Vol. 1) (2009) [FLAC]\Disc 2\13 - Someday, Someway (live - Apollo Theater, New York).wav

Peak level 79.9 %
Extraction speed 6.9 X
Track quality 100.0 %
Test CRC 79133644
Copy CRC 79133644
Accurately ripped (confidence 7) [CB36EDAD] (AR v2)
Copy OK

Track 14

Filename C:\Users\BGorton\Desktop\The Marvelettes - Forever (The Complete Motown Albums Vol. 1) (2009) [FLAC]\Disc 2\14 - Locking Up My Heart (live - Regal Theater, Chicago).wav

Peak level 94.9 %
Extraction speed 7.1 X
Track quality 100.0 %
Test CRC B982415F
Copy CRC B982415F
Accurately ripped (confidence 7) [6E373193] (AR v2)
Copy OK

Track 15

Filename C:\Users\BGorton\Desktop\The Marvelettes - Forever (The Complete Motown Albums Vol. 1) (2009) [FLAC]\Disc 2\15 - Twistin' Postman (live - Apollo Theater, New York).wav

Pre-gap length 0:00:02.44

Peak level 80.6 %
Extraction speed 7.0 X
Track quality 100.0 %
Test CRC 2EFFEFA6
Copy CRC 2EFFEFA6
Accurately ripped (confidence 7) [9779FE7E] (AR v2)
Copy OK

Track 16

Filename C:\Users\BGorton\Desktop\The Marvelettes - Forever (The Complete Motown Albums Vol. 1) (2009) [FLAC]\Disc 2\16 - Tossin' And Turnin' (live - Apollo Theater, New York).wav

Peak level 100.0 %
Extraction speed 7.1 X
Track quality 100.0 %
Test CRC 5C5A8FF6
Copy CRC 5C5A8FF6
Accurately ripped (confidence 7) [4AB41554] (AR v2)
Copy OK

Track 17

Filename C:\Users\BGorton\Desktop\The Marvelettes - Forever (The Complete Motown Albums Vol. 1) (2009) [FLAC]\Disc 2\17 - So Long Baby (live - Apollo Theater, New York).wav

Peak level 88.6 %
Extraction speed 7.5 X
Track quality 100.0 %
Test CRC A695CA2B
Copy CRC A695CA2B
Accurately ripped (confidence 7) [36C0B37B] (AR v2)
Copy OK

Track 18

Filename C:\Users\BGorton\Desktop\The Marvelettes - Forever (The Complete Motown Albums Vol. 1) (2009) [FLAC]\Disc 2\18 - Playboy (live - Apollo Theater, New York).wav

Peak level 80.1 %
Extraction speed 7.2 X
Track quality 100.0 %
Test CRC 97A728DE
Copy CRC 97A728DE
Accurately ripped (confidence 7) [BFC2F253] (AR v2)
Copy OK

Track 19

Filename C:\Users\BGorton\Desktop\The Marvelettes - Forever (The Complete Motown Albums Vol. 1) (2009) [FLAC]\Disc 2\19 - Strange I Know (live - Apollo Theater, New York) (unedited version).wav

Pre-gap length 0:00:02.72

Peak level 98.1 %
Extraction speed 7.9 X
Track quality 100.0 %
Test CRC 1A9B0490
Copy CRC 1A9B0490
Accurately ripped (confidence 7) [99D202C0] (AR v2)
Copy OK

Track 20

Filename C:\Users\BGorton\Desktop\The Marvelettes - Forever (The Complete Motown Albums Vol. 1) (2009) [FLAC]\Disc 2\20 - Medley (live - Fox Theater, Detroit).wav

Peak level 88.0 %
Extraction speed 8.5 X
Track quality 100.0 %
Test CRC D5894D5A
Copy CRC D5894D5A
Accurately ripped (confidence 7) [109655AC] (AR v2)
Copy OK

Track 21

Filename C:\Users\BGorton\Desktop\The Marvelettes - Forever (The Complete Motown Albums Vol. 1) (2009) [FLAC]\Disc 2\21 - Tie A String Around Your Finger.wav

Pre-gap length 0:00:01.16

Peak level 82.6 %
Extraction speed 8.2 X
Track quality 100.0 %
Test CRC 96404A12
Copy CRC 96404A12
Accurately ripped (confidence 7) [DC6C6787] (AR v2)
Copy OK

Track 22

Filename C:\Users\BGorton\Desktop\The Marvelettes - Forever (The Complete Motown Albums Vol. 1) (2009) [FLAC]\Disc 2\22 - Too Hurt To Cry, Too Much In Love To Say Goodbye.wav

Pre-gap length 0:00:01.05

Peak level 82.7 %
Extraction speed 7.9 X
Track quality 100.0 %
Test CRC 76D71A3C
Copy CRC 76D71A3C
Accurately ripped (confidence 7) [2531CAA0] (AR v2)
Copy OK

Track 23

Filename C:\Users\BGorton\Desktop\The Marvelettes - Forever (The Complete Motown Albums Vol. 1) (2009) [FLAC]\Disc 2\23 - Come On Home.wav

Pre-gap length 0:00:01.07

Peak level 81.2 %
Extraction speed 5.5 X
Track quality 99.9 %
Test CRC 417C2483
Copy CRC 417C2483
Accurately ripped (confidence 7) [14FC796D] (AR v2)
Copy OK

Track 24

Filename C:\Users\BGorton\Desktop\The Marvelettes - Forever (The Complete Motown Albums Vol. 1) (2009) [FLAC]\Disc 2\24 - Finders Keepers Losers Weepers.wav

Pre-gap length 0:00:01.05

Peak level 85.0 %
Extraction speed 8.3 X
Track quality 100.0 %
Test CRC A4AD41ED
Copy CRC A4AD41ED
Accurately ripped (confidence 7) [91B1F72E] (AR v2)
Copy OK

Track 25

Filename C:\Users\BGorton\Desktop\The Marvelettes - Forever (The Complete Motown Albums Vol. 1) (2009) [FLAC]\Disc 2\25 - Knock On My Door.wav

Pre-gap length 0:00:01.14

Peak level 72.7 %
Extraction speed 6.2 X
Track quality 99.9 %
Test CRC 3A8DB7E8
Copy CRC 3A8DB7E8
Accurately ripped (confidence 7) [0D762267] (AR v2)
Copy OK

Track 26

Filename C:\Users\BGorton\Desktop\The Marvelettes - Forever (The Complete Motown Albums Vol. 1) (2009) [FLAC]\Disc 2\26 - On The Other Side Of Town.wav

Pre-gap length 0:00:01.05

Peak level 84.2 %
Extraction speed 8.3 X
Track quality 100.0 %
Test CRC DE24E333
Copy CRC DE24E333
Accurately ripped (confidence 7) [F39D7D70] (AR v2)
Copy OK

Track 27

Filename C:\Users\BGorton\Desktop\The Marvelettes - Forever (The Complete Motown Albums Vol. 1) (2009) [FLAC]\Disc 2\27 - Because I Love Him.wav

Pre-gap length 0:00:01.04

Peak level 73.1 %
Extraction speed 4.9 X
Track quality 99.8 %
Test CRC D22FD31A
Copy CRC D22FD31A
Accurately ripped (confidence 7) [A1F29F45] (AR v2)
Copy OK

Track 28

Filename C:\Users\BGorton\Desktop\The Marvelettes - Forever (The Complete Motown Albums Vol. 1) (2009) [FLAC]\Disc 2\28 - Little Girls Grow Up.wav

Pre-gap length 0:00:01.16

Peak level 77.8 %
Extraction speed 5.6 X
Track quality 100.0 %
Test CRC 8D70AA6E
Copy CRC 8D70AA6E
Accurately ripped (confidence 7) [29F81A97] (AR v2)
Copy OK


All tracks accurately ripped

No errors occurred

End of status report

–– CUETools DB Plugin V2.1.4

[CTDB TOCID: ouoK1NVnkMdo5JJcl0XW3de8pmI-] found
Submit result: ouoK1NVnkMdo5JJcl0XW3de8pmI- has been confirmed
Track | CTDB Status
1 | (2/2) Accurately ripped
2 | (2/2) Accurately ripped
3 | (2/2) Accurately ripped
4 | (2/2) Accurately ripped
5 | (2/2) Accurately ripped
6 | (2/2) Accurately ripped
7 | (2/2) Accurately ripped
8 | (2/2) Accurately ripped
9 | (2/2) Accurately ripped
10 | (2/2) Accurately ripped
11 | (2/2) Accurately ripped
12 | (2/2) Accurately ripped
13 | (2/2) Accurately ripped
14 | (2/2) Accurately ripped
15 | (2/2) Accurately ripped
16 | (2/2) Accurately ripped
17 | (2/2) Accurately ripped
18 | (2/2) Accurately ripped
19 | (2/2) Accurately ripped
20 | (2/2) Accurately ripped
21 | (2/2) Accurately ripped
22 | (2/2) Accurately ripped
23 | (2/2) Accurately ripped
24 | (2/2) Accurately ripped
25 | (2/2) Accurately ripped
26 | (2/2) Accurately ripped
27 | (2/2) Accurately ripped
28 | (2/2) Accurately ripped


==== Log checksum 31AB51D9D91146E14CF86B6E006DF81F541D329CD5F9FF23DC3FE522797165B1 ====


Exact Audio Copy V1.0 beta 4 from 7. December 2014

EAC extraction logfile from 17. April 2015, 10:42

The Marvelettes / Forever: The Complete Motown Albums - Vol. 1 (disc 3)

Used drive : hp CDDVDW SH-216BB Adapter: 1 ID: 0

Read mode : Secure
Utilize accurate stream : Yes
Defeat audio cache : Yes
Make use of C2 pointers : No

Read offset correction : 6
Overread into Lead-In and Lead-Out : No
Fill up missing offset samples with silence : Yes
Delete leading and trailing silent blocks : No
Null samples used in CRC calculations : Yes
Used interface : Native Win32 interface for Win NT & 2000
Gap handling : Appended to previous track

Used output format : User Defined Encoder
Selected bitrate : 1024 kBit/s
Quality : High
Add ID3 tag : No
Command line compressor : C:\Program Files (x86)\Exact Audio Copy\Flac\flac.exe
Additional command line options : -8 -V -T "artist=%artist%" -T "title=%title%" -T "album=%albumtitle%" -T "date=%year%" -T "tracknumber=%tracknr%" -T "genre=%genre%" %source%


TOC of the extracted CD

Track | Start | Length | Start sector | End sector
––––––––––––––––––––––––––––-
1 | 0:00.00 | 2:50.63 | 0 | 12812
2 | 2:50.63 | 3:04.61 | 12813 | 26673
3 | 5:55.49 | 2:24.35 | 26674 | 37508
4 | 8:20.09 | 2:33.16 | 37509 | 48999
5 | 10:53.25 | 2:29.53 | 49000 | 60227
6 | 13:23.03 | 2:31.47 | 60228 | 71599
7 | 15:54.50 | 2:30.34 | 71600 | 82883
8 | 18:25.09 | 2:47.40 | 82884 | 95448
9 | 21:12.49 | 2:23.08 | 95449 | 106181
10 | 23:35.57 | 2:25.22 | 106182 | 117078
11 | 26:01.04 | 2:31.29 | 117079 | 128432
12 | 28:32.33 | 2:13.51 | 128433 | 138458
13 | 30:46.09 | 2:31.01 | 138459 | 149784
14 | 33:17.10 | 2:31.00 | 149785 | 161109
15 | 35:48.10 | 2:37.50 | 161110 | 172934
16 | 38:25.60 | 3:02.38 | 172935 | 186622
17 | 41:28.23 | 2:25.25 | 186623 | 197522
18 | 43:53.48 | 2:28.00 | 197523 | 208622
19 | 46:21.48 | 1:55.50 | 208623 | 217297
20 | 48:17.23 | 2:26.27 | 217298 | 228274
21 | 50:43.50 | 2:37.05 | 228275 | 240054
22 | 53:20.55 | 2:23.68 | 240055 | 250847
23 | 55:44.48 | 2:57.45 | 250848 | 264167
24 | 58:42.18 | 2:49.62 | 264168 | 276904
25 | 61:32.05 | 2:23.61 | 276905 | 287690
26 | 63:55.66 | 2:30.40 | 287691 | 298980
27 | 66:26.31 | 2:59.12 | 298981 | 312417
28 | 69:25.43 | 2:51.57 | 312418 | 325299


Track 1

Filename C:\Users\BGorton\Desktop\The Marvelettes - Forever (The Complete Motown Albums Vol. 1) (2009) [FLAC]\Disc 3\01 - Don't Mess With Bill (stereo).wav

Pre-gap length 0:00:02.00

Peak level 99.7 %
Extraction speed 2.7 X
Track quality 100.0 %
Test CRC B64E021E
Copy CRC B64E021E
Accurately ripped (confidence 7) [8C989D0B] (AR v2)
Copy OK

Track 2

Filename C:\Users\BGorton\Desktop\The Marvelettes - Forever (The Complete Motown Albums Vol. 1) (2009) [FLAC]\Disc 3\02 - You're My Remedy (stereo).wav

Pre-gap length 0:00:01.05

Peak level 99.7 %
Extraction speed 3.0 X
Track quality 100.0 %
Test CRC E780CD68
Copy CRC E780CD68
Accurately ripped (confidence 7) [42D60B75] (AR v2)
Copy OK

Track 3

Filename C:\Users\BGorton\Desktop\The Marvelettes - Forever (The Complete Motown Albums Vol. 1) (2009) [FLAC]\Disc 3\03 - Locking Up My Heart (stereo).wav

Pre-gap length 0:00:01.04

Peak level 99.7 %
Extraction speed 3.0 X
Track quality 100.0 %
Test CRC F9D558E6
Copy CRC F9D558E6
Accurately ripped (confidence 7) [6B32D1FD] (AR v2)
Copy OK

Track 4

Filename C:\Users\BGorton\Desktop\The Marvelettes - Forever (The Complete Motown Albums Vol. 1) (2009) [FLAC]\Disc 3\04 - As Long As I Know He's Mine (stereo).wav

Pre-gap length 0:00:01.07

Peak level 98.4 %
Extraction speed 3.1 X
Track quality 100.0 %
Test CRC 92FD7B27
Copy CRC 92FD7B27
Accurately ripped (confidence 7) [A19D802B] (AR v2)
Copy OK

Track 5

Filename C:\Users\BGorton\Desktop\The Marvelettes - Forever (The Complete Motown Albums Vol. 1) (2009) [FLAC]\Disc 3\05 - Too Many Fish In The Sea (stereo).wav

Pre-gap length 0:00:01.17

Peak level 97.5 %
Extraction speed 2.3 X
Track quality 99.9 %
Test CRC 5FDDCA7A
Copy CRC 5FDDCA7A
Accurately ripped (confidence 7) [EF096482] (AR v2)
Copy OK

Track 6

Filename C:\Users\BGorton\Desktop\The Marvelettes - Forever (The Complete Motown Albums Vol. 1) (2009) [FLAC]\Disc 3\06 - Danger- Heartbreak Dead Ahead (stereo).wav

Pre-gap length 0:00:01.14

Peak level 97.4 %
Extraction speed 3.4 X
Track quality 100.0 %
Test CRC BF5EDB36
Copy CRC BF5EDB36
Accurately ripped (confidence 7) [8EC191E7] (AR v2)
Copy OK

Track 7

Filename C:\Users\BGorton\Desktop\The Marvelettes - Forever (The Complete Motown Albums Vol. 1) (2009) [FLAC]\Disc 3\07 - Please Mr. Postman (stereo).wav

Pre-gap length 0:00:01.26

Peak level 98.0 %
Extraction speed 3.5 X
Track quality 100.0 %
Test CRC 0FCFDA6E
Copy CRC 0FCFDA6E
Accurately ripped (confidence 7) [B688967C] (AR v2)
Copy OK

Track 8

Filename C:\Users\BGorton\Desktop\The Marvelettes - Forever (The Complete Motown Albums Vol. 1) (2009) [FLAC]\Disc 3\08 - Playboy (stereo).wav

Pre-gap length 0:00:01.04

Peak level 100.0 %
Extraction speed 3.7 X
Track quality 100.0 %
Test CRC 819D9146
Copy CRC 819D9146
Accurately ripped (confidence 7) [8355482E] (AR v2)
Copy OK

Track 9

Filename C:\Users\BGorton\Desktop\The Marvelettes - Forever (The Complete Motown Albums Vol. 1) (2009) [FLAC]\Disc 3\09 - Strange I Know (stereo).wav

Pre-gap length 0:00:01.05

Peak level 100.0 %
Extraction speed 2.6 X
Track quality 99.9 %
Test CRC B858EA40
Copy CRC B858EA40
Accurately ripped (confidence 7) [3209A8AA] (AR v2)
Copy OK

Track 10

Filename C:\Users\BGorton\Desktop\The Marvelettes - Forever (The Complete Motown Albums Vol. 1) (2009) [FLAC]\Disc 3\10 - Forever (stereo).wav

Pre-gap length 0:00:02.05

Peak level 92.5 %
Extraction speed 3.9 X
Track quality 100.0 %
Test CRC 319273D7
Copy CRC 319273D7
Accurately ripped (confidence 7) [C4BFD336] (AR v2)
Copy OK

Track 11

Filename C:\Users\BGorton\Desktop\The Marvelettes - Forever (The Complete Motown Albums Vol. 1) (2009) [FLAC]\Disc 3\11 - Twistin' Postman (stereo).wav

Pre-gap length 0:00:01.08

Peak level 94.7 %
Extraction speed 2.8 X
Track quality 99.9 %
Test CRC A1BEE5E7
Copy CRC A1BEE5E7
Accurately ripped (confidence 7) [DECB4267] (AR v2)
Copy OK

Track 12

Filename C:\Users\BGorton\Desktop\The Marvelettes - Forever (The Complete Motown Albums Vol. 1) (2009) [FLAC]\Disc 3\12 - Beechwood 4-5789 (stereo).wav

Pre-gap length 0:00:01.12

Peak level 100.0 %
Extraction speed 3.9 X
Track quality 100.0 %
Test CRC A8E23033
Copy CRC A8E23033
Accurately ripped (confidence 7) [5DD1D0FC] (AR v2)
Copy OK

Track 13

Filename C:\Users\BGorton\Desktop\The Marvelettes - Forever (The Complete Motown Albums Vol. 1) (2009) [FLAC]\Disc 3\13 - As Long As I Know He's Mine.wav

Pre-gap length 0:00:04.18

Peak level 100.0 %
Extraction speed 4.2 X
Track quality 100.0 %
Test CRC 18CE26E9
Copy CRC 18CE26E9
Accurately ripped (confidence 7) [4CAB87DA] (AR v2)
Copy OK

Track 14

Filename C:\Users\BGorton\Desktop\The Marvelettes - Forever (The Complete Motown Albums Vol. 1) (2009) [FLAC]\Disc 3\14 - He Won't Be True (Little Girl Blue).wav

Pre-gap length 0:00:01.04

Peak level 93.1 %
Extraction speed 4.3 X
Track quality 100.0 %
Test CRC BD38250E
Copy CRC BD38250E
Accurately ripped (confidence 7) [BC2125D8] (AR v2)
Copy OK

Track 15

Filename C:\Users\BGorton\Desktop\The Marvelettes - Forever (The Complete Motown Albums Vol. 1) (2009) [FLAC]\Disc 3\15 - He's A Good Guy (Yes He Is).wav

Pre-gap length 0:00:01.04

Peak level 95.5 %
Extraction speed 3.1 X
Track quality 99.9 %
Test CRC DAD4CA66
Copy CRC DAD4CA66
Accurately ripped (confidence 7) [592D92C7] (AR v2)
Copy OK

Track 16

Filename C:\Users\BGorton\Desktop\The Marvelettes - Forever (The Complete Motown Albums Vol. 1) (2009) [FLAC]\Disc 3\16 - You're My Remedy.wav

Pre-gap length 0:00:01.04

Peak level 100.0 %
Extraction speed 4.6 X
Track quality 100.0 %
Test CRC ECF5E0AB
Copy CRC ECF5E0AB
Accurately ripped (confidence 7) [CF4E99AF] (AR v2)
Copy OK

Track 17

Filename C:\Users\BGorton\Desktop\The Marvelettes - Forever (The Complete Motown Albums Vol. 1) (2009) [FLAC]\Disc 3\17 - A Little Bit Of Sympathy, A Little Bit Of Love.wav

Pre-gap length 0:00:01.05

Peak level 88.8 %
Extraction speed 4.5 X
Track quality 100.0 %
Test CRC F2436F0E
Copy CRC F2436F0E
Accurately ripped (confidence 7) [7127817E] (AR v2)
Copy OK

Track 18

Filename C:\Users\BGorton\Desktop\The Marvelettes - Forever (The Complete Motown Albums Vol. 1) (2009) [FLAC]\Disc 3\18 - Too Many Fish In The Sea.wav

Pre-gap length 0:00:01.06

Peak level 91.4 %
Extraction speed 4.6 X
Track quality 100.0 %
Test CRC 845A01D2
Copy CRC 845A01D2
Accurately ripped (confidence 7) [A7D5F987] (AR v2)
Copy OK

Track 19

Filename C:\Users\BGorton\Desktop\The Marvelettes - Forever (The Complete Motown Albums Vol. 1) (2009) [FLAC]\Disc 3\19 - A Need For Love.wav

Pre-gap length 0:00:01.09

Peak level 84.8 %
Extraction speed 4.4 X
Track quality 100.0 %
Test CRC 2A2ECCAD
Copy CRC 2A2ECCAD
Accurately ripped (confidence 7) [011E6FC3] (AR v2)
Copy OK

Track 20

Filename C:\Users\BGorton\Desktop\The Marvelettes - Forever (The Complete Motown Albums Vol. 1) (2009) [FLAC]\Disc 3\20 - I'll Keep On Holding On.wav

Pre-gap length 0:00:01.06

Peak level 86.4 %
Extraction speed 4.8 X
Track quality 100.0 %
Test CRC 589770DF
Copy CRC 589770DF
Accurately ripped (confidence 7) [AF58C053] (AR v2)
Copy OK

Track 21

Filename C:\Users\BGorton\Desktop\The Marvelettes - Forever (The Complete Motown Albums Vol. 1) (2009) [FLAC]\Disc 3\21 - No Time For Tears.wav

Pre-gap length 0:00:01.06

Peak level 89.1 %
Extraction speed 4.9 X
Track quality 100.0 %
Test CRC 2C2BA6ED
Copy CRC 2C2BA6ED
Accurately ripped (confidence 7) [0CA7A26C] (AR v2)
Copy OK

Track 22

Filename C:\Users\BGorton\Desktop\The Marvelettes - Forever (The Complete Motown Albums Vol. 1) (2009) [FLAC]\Disc 3\22 - Danger- Heartbreak Dead Ahead.wav

Pre-gap length 0:00:01.04

Peak level 94.3 %
Extraction speed 4.9 X
Track quality 100.0 %
Test CRC 1CEB8423
Copy CRC 1CEB8423
Accurately ripped (confidence 7) [6F8CECDB] (AR v2)
Copy OK

Track 23

Filename C:\Users\BGorton\Desktop\The Marvelettes - Forever (The Complete Motown Albums Vol. 1) (2009) [FLAC]\Disc 3\23 - Your Cheating Ways.wav

Pre-gap length 0:00:01.09

Peak level 88.9 %
Extraction speed 3.7 X
Track quality 99.9 %
Test CRC 1A6753FD
Copy CRC 1A6753FD
Accurately ripped (confidence 7) [4235A482] (AR v2)
Copy OK

Track 24

Filename C:\Users\BGorton\Desktop\The Marvelettes - Forever (The Complete Motown Albums Vol. 1) (2009) [FLAC]\Disc 3\24 - Don't Mess With Bill.wav

Pre-gap length 0:00:01.12

Peak level 90.9 %
Extraction speed 5.2 X
Track quality 100.0 %
Test CRC 4E71C2FA
Copy CRC 4E71C2FA
Accurately ripped (confidence 7) [748E0117] (AR v2)
Copy OK

Track 25

Filename C:\Users\BGorton\Desktop\The Marvelettes - Forever (The Complete Motown Albums Vol. 1) (2009) [FLAC]\Disc 3\25 - Anything You Wanna Do.wav

Pre-gap length 0:00:01.19

Peak level 87.4 %
Extraction speed 5.2 X
Track quality 100.0 %
Test CRC 29E966E6
Copy CRC 29E966E6
Accurately ripped (confidence 7) [E7C0EC17] (AR v2)
Copy OK

Track 26

Filename C:\Users\BGorton\Desktop\The Marvelettes - Forever (The Complete Motown Albums Vol. 1) (2009) [FLAC]\Disc 3\26 - I Should've Known Better.wav

Pre-gap length 0:00:01.07

Peak level 93.4 %
Extraction speed 5.3 X
Track quality 100.0 %
Test CRC 4545ED9B
Copy CRC 4545ED9B
Accurately ripped (confidence 7) [26236876] (AR v2)
Copy OK

Track 27

Filename C:\Users\BGorton\Desktop\The Marvelettes - Forever (The Complete Motown Albums Vol. 1) (2009) [FLAC]\Disc 3\27 - I Just Can't Let Him Down.wav

Pre-gap length 0:00:01.12

Peak level 94.3 %
Extraction speed 5.6 X
Track quality 100.0 %
Test CRC B08C0630
Copy CRC B08C0630
Accurately ripped (confidence 7) [B9C2AA7C] (AR v2)
Copy OK

Track 28

Filename C:\Users\BGorton\Desktop\The Marvelettes - Forever (The Complete Motown Albums Vol. 1) (2009) [FLAC]\Disc 3\28 - Maybe I Dried My Tears (For The Last Time).wav

Pre-gap length 0:00:01.18

Peak level 85.3 %
Extraction speed 5.6 X
Track quality 100.0 %
Test CRC 7D38020E
Copy CRC 7D38020E
Accurately ripped (confidence 7) [F1AF0FEB] (AR v2)
Copy OK


All tracks accurately ripped

No errors occurred

End of status report

–– CUETools DB Plugin V2.1.4

[CTDB TOCID: XhruX9VlUc5urFPIM6hwz8RU34c-] found
Submit result: XhruX9VlUc5urFPIM6hwz8RU34c- has been confirmed
Track | CTDB Status
1 | (2/2) Accurately ripped
2 | (2/2) Accurately ripped
3 | (2/2) Accurately ripped
4 | (2/2) Accurately ripped
5 | (2/2) Accurately ripped
6 | (2/2) Accurately ripped
7 | (2/2) Accurately ripped
8 | (2/2) Accurately ripped
9 | (2/2) Accurately ripped
10 | (2/2) Accurately ripped
11 | (2/2) Accurately ripped
12 | (2/2) Accurately ripped
13 | (2/2) Accurately ripped
14 | (2/2) Accurately ripped
15 | (2/2) Accurately ripped
16 | (2/2) Accurately ripped
17 | (2/2) Accurately ripped
18 | (2/2) Accurately ripped
19 | (2/2) Accurately ripped
20 | (2/2) Accurately ripped
21 | (2/2) Accurately ripped
22 | (2/2) Accurately ripped
23 | (2/2) Accurately ripped
24 | (2/2) Accurately ripped
25 | (2/2) Accurately ripped
26 | (2/2) Accurately ripped
27 | (2/2) Accurately ripped
28 | (2/2) Accurately ripped


==== Log checksum 09634409E7CC8238AFE8912B3B43A26B1F02016679A685ACBDDA53C952822352 ====