Subcategories

Rick Wright - Broken China (1996) {Japan 1st Press}

Posted By: popsakov
Rick Wright - Broken China (1996) {Japan 1st Press}

Rick Wright - Broken China (1996) {Japan 1st Press}
EAC Rip | WavPack (Img) + Cue + Log ~ 327 Mb | MP3 CBR320 ~ 148 Mb
Covers Included | RAR 5% Recovery
Art Rock, Progressive Rock, Psychedelic Rock | Toshiba-EMI Ltd. #TOCP-50059

Broken China is a progressive rock solo album by Pink Floyd keyboard player Richard Wright. It was his second and final solo album. The album is a four-part concept album based on Wright's then-wife Mildred's battle with depression, and is very much like a classic Pink Floyd concept album in its structure and overall feel. Two songs, "Reaching for the Rail" and "Breakthrough" feature Sinéad O'Connor on lead vocals, with Wright singing elsewhere. The album was recorded in Wright's personal studio in France. Broken China was only Wright's second solo record after 1978's Wet Dream and the last to be released before his death in September 2008. Wright asked fellow Pink Floyd bandmate David Gilmour to perform on the album, and Gilmour agreed to play on "Breakthrough." However, the approach for the song was changed later on, and Gilmour's performance was not used on the finished release.
~ Wiki

***************

Rick Wright - Broken China (1996) {Japan 1st Press}

Rick Wright - Broken China (1996) {Japan 1st Press}

Track List:

01. Breaking Water [0:02:27.02]
02. Night Of A Thousand Furry Toys [0:04:23.73]
03. Hidden Fear [0:03:28.35]
04. Runaway [0:04:00.45]
05. Unfair Ground [0:02:22.40]
06. Satellite [0:04:05.67]
07. Woman Of Custom [0:03:44.53]
08. Interlude [0:01:15.65]
09. Black Cloud [0:03:20.12]
10. Far From The Harbour Wall [0:06:08.65]
11. Drowning [0:01:38.40]
12. Reaching For The Rail [0:06:30.23]
13. Blue Room In Venice [0:02:47.30]
14. Sweet July [0:04:14.10]
15. Along The Shoreline [0:04:36.25]
16. Breakthrough [0:04:19.32]

Personnel:
Richard Wright – keyboards, vocals, programming
Anthony Moore – computer programming & arrangements, ‘telephone vocal’ (2)
Sinéad O’Connor – lead vocals (12, 16)
Tim Renwick – guitars
Dominic Miller – guitars
Steven Bolton – guitars
Pino Palladino – bass guitar
Manu Katché – drums, percussion
Sian Bell – cello
Kate St. John – oboe, cor anglais
Maz Palladino – backing vocals

Exact Audio Copy V1.2 from 12. August 2016

EAC extraction logfile from 22. September 2018, 15:38

Rick Wright / Broken China [TOCP-50059]

Used drive : HL-DT-STBD-RE BH10LS38 Adapter: 1 ID: 1

Read mode : Secure
Utilize accurate stream : Yes
Defeat audio cache : Yes
Make use of C2 pointers : No

Read offset correction : 667
Overread into Lead-In and Lead-Out : No
Fill up missing offset samples with silence : Yes
Delete leading and trailing silent blocks : No
Null samples used in CRC calculations : Yes
Used interface : Installed external ASPI interface

Used output format : User Defined Encoder
Selected bitrate : 128 kBit/s
Quality : High
Add ID3 tag : No
Command line compressor : C:\Program Files (x86)\Exact Audio Copy\wavpack-4.60.1\wavpack.exe
Additional command line options : -hm -w "Year=%year%" -w "Genre=%genre%" %source% %dest%


TOC of the extracted CD

Track | Start | Length | Start sector | End sector
––––––––––––––––––––––––––––-
1 | 0:00.00 | 2:27.02 | 0 | 11026
2 | 2:27.02 | 4:23.73 | 11027 | 30824
3 | 6:51.00 | 3:28.35 | 30825 | 46459
4 | 10:19.35 | 4:00.45 | 46460 | 64504
5 | 14:20.05 | 2:22.40 | 64505 | 75194
6 | 16:42.45 | 4:05.67 | 75195 | 93636
7 | 20:48.37 | 3:44.53 | 93637 | 110489
8 | 24:33.15 | 1:15.65 | 110490 | 116179
9 | 25:49.05 | 3:20.12 | 116180 | 131191
10 | 29:09.17 | 6:08.65 | 131192 | 158856
11 | 35:18.07 | 1:38.40 | 158857 | 166246
12 | 36:56.47 | 6:30.23 | 166247 | 195519
13 | 43:26.70 | 2:47.30 | 195520 | 208074
14 | 46:14.25 | 4:14.10 | 208075 | 227134
15 | 50:28.35 | 4:36.25 | 227135 | 247859
16 | 55:04.60 | 4:19.32 | 247860 | 267316


Range status and errors

Selected range

Filename G:\Rips by Alder\Rick Wright - Broken China [TOCP-50059].wav

Peak level 100.0 %
Extraction speed 7.6 X
Range quality 100.0 %
Test CRC 7A89AB41
Copy CRC 7A89AB41
Copy OK

No errors occurred


AccurateRip summary

Track 1 accurately ripped (confidence 2) [09AE1DE3] (AR v2)
Track 2 accurately ripped (confidence 2) [0497F6EC] (AR v2)
Track 3 accurately ripped (confidence 2) [1E97CFE1] (AR v2)
Track 4 accurately ripped (confidence 2) [1678ADF3] (AR v2)
Track 5 accurately ripped (confidence 2) [43420189] (AR v2)
Track 6 accurately ripped (confidence 2) [4695C442] (AR v2)
Track 7 accurately ripped (confidence 2) [F6E4E5C6] (AR v2)
Track 8 accurately ripped (confidence 2) [2C26EEA8] (AR v2)
Track 9 accurately ripped (confidence 2) [58BCE6F5] (AR v2)
Track 10 accurately ripped (confidence 2) [613654AD] (AR v2)
Track 11 accurately ripped (confidence 2) [D3529504] (AR v2)
Track 12 accurately ripped (confidence 2) [4C17D081] (AR v2)
Track 13 accurately ripped (confidence 2) [E45245D3] (AR v2)
Track 14 accurately ripped (confidence 2) [5E172C53] (AR v2)
Track 15 accurately ripped (confidence 2) [9BF68086] (AR v2)
Track 16 accurately ripped (confidence 2) [B6E9E79B] (AR v2)

All tracks accurately ripped

End of status report

–– CUETools DB Plugin V2.1.6

[CTDB TOCID: NXDssdpDu.p23jjiw3ADsafoZIs-] found
Submit result: NXDssdpDu.p23jjiw3ADsafoZIs- has been confirmed
Track | CTDB Status
1 | (3/3) Accurately ripped
2 | (3/3) Accurately ripped
3 | (3/3) Accurately ripped
4 | (3/3) Accurately ripped
5 | (3/3) Accurately ripped
6 | (3/3) Accurately ripped
7 | (3/3) Accurately ripped
8 | (3/3) Accurately ripped
9 | (3/3) Accurately ripped
10 | (3/3) Accurately ripped
11 | (3/3) Accurately ripped
12 | (3/3) Accurately ripped
13 | (3/3) Accurately ripped
14 | (3/3) Accurately ripped
15 | (3/3) Accurately ripped
16 | (3/3) Accurately ripped


==== Log checksum 734721D4D098E61DA13CEFBC375F77B2DB9145E266F8DA941C06EDDC6E78BDF5 ====

foobar2000 1.3.16 / Dynamic Range Meter 1.1.1
log date: 2018-09-23 11:03:32

––––––––––––––––––––––––––––––––––––––––
Analyzed: Rick Wright / Broken China [TOCP-50059]
––––––––––––––––––––––––––––––––––––––––

DR Peak RMS Duration Track
––––––––––––––––––––––––––––––––––––––––
DR12 -7.67 dB -23.40 dB 2:27 01-Breaking Water
DR12 0.00 dB -14.45 dB 4:24 02-Night Of A Thousand Furry Toys
DR12 -2.16 dB -18.75 dB 3:28 03-Hidden Fear
DR12 0.00 dB -17.44 dB 4:01 04-Runaway
DR12 -4.90 dB -19.97 dB 2:23 05-Unfair Ground
DR9 0.00 dB -13.21 dB 4:06 06-Satellite
DR11 0.00 dB -14.25 dB 3:45 07-Woman Of Custom
DR11 -4.16 dB -21.41 dB 1:16 08-Interlude
DR12 0.00 dB -16.51 dB 3:20 09-Black Cloud
DR11 0.00 dB -14.52 dB 6:09 10-Far From The Harbour Wall
DR12 0.00 dB -20.08 dB 1:39 11-Drowning
DR12 0.00 dB -15.00 dB 6:30 12-Reaching For The Rail
DR11 -2.32 dB -19.03 dB 2:47 13-Blue Room In Venice
DR12 -2.98 dB -18.91 dB 4:14 14-Sweet July
DR10 0.00 dB -11.49 dB 4:36 15-Along The Shoreline
DR13 -0.71 dB -16.32 dB 4:19 16-Breakthrough
––––––––––––––––––––––––––––––––––––––––

Number of tracks: 16
Official DR value: DR11

Samplerate: 44100 Hz
Channels: 2
Bits per sample: 16
Bitrate: 722 kbps
Codec: WavPack
================================================================================

[CUETools log; Date: 23.09.2018 11:04:09; Version: 2.1.6]
[CTDB TOCID: NXDssdpDu.p23jjiw3ADsafoZIs-] found.
Track | CTDB Status
1 | (4/4) Accurately ripped
2 | (4/4) Accurately ripped
3 | (4/4) Accurately ripped
4 | (4/4) Accurately ripped
5 | (4/4) Accurately ripped
6 | (4/4) Accurately ripped
7 | (4/4) Accurately ripped
8 | (4/4) Accurately ripped
9 | (4/4) Accurately ripped
10 | (4/4) Accurately ripped
11 | (4/4) Accurately ripped
12 | (4/4) Accurately ripped
13 | (4/4) Accurately ripped
14 | (4/4) Accurately ripped
15 | (4/4) Accurately ripped
16 | (4/4) Accurately ripped
[AccurateRip ID: 0020d07a-018e07ef-b30dec10] found.
Track [ CRC | V2 ] Status
01 [31ff65c9|09ae1de3] (0+2/2) Accurately ripped
02 [ccd0f433|0497f6ec] (0+2/2) Accurately ripped
03 [3a6cc893|1e97cfe1] (0+2/2) Accurately ripped
04 [393b931e|1678adf3] (0+2/2) Accurately ripped
05 [04548802|43420189] (0+2/2) Accurately ripped
06 [65852572|4695c442] (0+2/2) Accurately ripped
07 [8039f04d|f6e4e5c6] (0+2/2) Accurately ripped
08 [9b164c30|2c26eea8] (0+2/2) Accurately ripped
09 [b914b541|58bce6f5] (0+2/2) Accurately ripped
10 [7bd5e803|613654ad] (0+2/2) Accurately ripped
11 [2c4f8e56|d3529504] (0+2/2) Accurately ripped
12 [076c2f86|4c17d081] (0+2/2) Accurately ripped
13 [67a998f7|e45245d3] (0+2/2) Accurately ripped
14 [74322ad3|5e172c53] (0+2/2) Accurately ripped
15 [0a701ca6|9bf68086] (0+2/2) Accurately ripped
16 [d29d6abd|b6e9e79b] (0+2/2) Accurately ripped

Track Peak [ CRC32 ] [W/O NULL] [ LOG ]
– 100,0 [7A89AB41] [D2ECEBFB] CRC32
01 41,3 [1DA10209] [CBD91E03]
02 100,0 [900D03B6] [ABDCEBB3]
03 77,9 [B24262D6] [8ED2C8ED]
04 100,0 [43BD0203] [69266760]
05 56,8 [5F881433] [7993B3D5]
06 100,0 [1A0BCE92] [CA9D832B]
07 100,0 [6E4F987F] [33953EB9]
08 61,9 [725A9B74] [D4252A45]
09 100,0 [0AE81F34] [40DE9761]
10 100,0 [54A0B5D9] [4BEEE308]
11 100,0 [250B859D] [4187471E]
12 100,0 [47387EBC] [010D0627]
13 76,5 [59381E3B] [7C44BFC8]
14 70,9 [EA0453FA] [E6645B8A]
15 100,0 [32AB4BB3] [22813C94]
16 92,1 [D009C692] [3239C461]

Rick Wright - Broken China (1996) {Japan 1st Press}

All thanks go to Alder

>>> Pink Floyd in my Blog <<<

Download from icerbox.com: