Subcategories

Pirates Of The Mississippi - Dream You (1993)

Posted By: popsakov
Pirates Of The Mississippi - Dream You (1993)

Pirates Of The Mississippi - Dream You (1993)
EAC Rip | FLAC (Tracks) + Cue + m3u + Log ~ 243 Mb | MP3 CBR320 ~ 104 Mb
Full Scans (JPG, 600 dpi) | RAR 5% Recovery
Country, Southern Rock | Liberty Records #CDP-0777-7-80379-2-7

Dream You is the fourth studio album by the American country music band Pirates of the Mississippi. Released in 1993 as their final studio album for Liberty Records, it features the single "Dream You", which peaked at number 68 on the Billboard Hot Country Singles & Tracks (now Hot Country Songs) charts. Basically a party album, it contains songs like "Save the Wild Life," "Pop from the Top," "The Night They Rocked the Grand Ole Opry," and a full-tilt cover of Hank Thompson's "The Wild Side of Life."

Pirates of the Mississippi was an American country music group founded in 1987 by Bill McCorvey (lead vocals), Rich Alves (lead guitar), Jimmy Lowe (drums), Pat Severs (steel guitar), and Dean Townson (bass guitar). Under this lineup, Pirates of the Mississippi made its debut in 1990 with a cover of Hank Williams' "Honky Tonk Blues". This cover was the first single from their self-titled debut album. "Honky Tonk Blues" was followed by ten more singles, all of which charted between 1990 and 1995. In that same time span, the band released four more studio albums and a compilation album. Severs was replaced by Greg Trostle in 1994, two years before the band was disestablished. In 2000, Alves and McCorvey reunited, releasing an additional album titled Heaven and a Dixie Night before disbanding again.

***************

Pirates Of The Mississippi - Dream You (1993)

Pirates Of The Mississippi - Dream You (1993)

Track List:

01. Dream You [2:49]
02. I Quit Lyin' In 1986 [3:02]
03. The Night They Rocked The Grand Ole Opry [4:20]
04. The Wild Side Of Life [2:42]
05. I'm Here To Stay [3:36]
06. People My Age [2:46]
07. When Times Were Good [4:06]
08. Save The Wild Life [2:32]
09. What I Want And What I Get [3:29]
10. Pop From The Top [2:21]

Personnel:
Rich Alves - electric guitar, background vocals
Jimmy Lowe - drums, percussion
Bill McCorvey - acoustic guitar, lead vocals
Pat Severs - 5-string banjo, banjo, dobro, pedal steel guitar, lap steel guitar
Dean Townson - bass guitar, background vocals

Exact Audio Copy V1.0 beta 3 from 29. August 2011

EAC extraction logfile from 5. January 2014, 2:25

Pirates Of The Mississippi / Dream You

Used drive : ATAPI iHAS124 B Adapter: 4 ID: 0

Read mode : Secure
Utilize accurate stream : Yes
Defeat audio cache : Yes
Make use of C2 pointers : No

Read offset correction : 6
Overread into Lead-In and Lead-Out : No
Fill up missing offset samples with silence : Yes
Delete leading and trailing silent blocks : No
Null samples used in CRC calculations : Yes
Used interface : Native Win32 interface for Win NT & 2000
Gap handling : Appended to previous track

Used output format : User Defined Encoder
Selected bitrate : 896 kBit/s
Quality : High
Add ID3 tag : No
Command line compressor : C:\Program Files\foobar2000\encoders\flac.exe
Additional command line options : -8 -V -T "ARTIST=%artist%" -T "TITLE=%title%" -T "ALBUM=%albumtitle%" -T "DATE=%year%" -T "TRACKNUMBER=%tracknr%" -T "GENRE=%genre%" -T "PERFORMER=%albuminterpret%" -T "COMPOSER=%composer%" %haslyrics%–tag-from-file=LYRICS="%lyricsfile%"%haslyrics% -T "ALBUMARTIST=%albumartist%" -T "DISCNUMBER=%cdnumber%" -T "TOTALDISCS=%totalcds%" -T "TOTALTRACKS=%numtracks%" -T "COMMENT=%comment%" %source% -o %dest%


TOC of the extracted CD

Track | Start | Length | Start sector | End sector
––––––––––––––––––––––––––––-
1 | 0:00.00 | 2:49.27 | 0 | 12701
2 | 2:49.27 | 3:03.48 | 12702 | 26474
3 | 5:53.00 | 4:19.45 | 26475 | 45944
4 | 10:12.45 | 2:42.30 | 45945 | 58124
5 | 12:55.00 | 3:36.02 | 58125 | 74326
6 | 16:31.02 | 2:46.45 | 74327 | 86821
7 | 19:17.47 | 4:06.45 | 86822 | 105316
8 | 23:24.17 | 2:33.10 | 105317 | 116801
9 | 25:57.27 | 3:29.55 | 116802 | 132531
10 | 29:27.07 | 2:21.08 | 132532 | 143114


Track 1

Filename F:\Music\Pirates of The Mississippi - Dream You (1993)\01. Dream You.wav

Pre-gap length 0:00:02.00

Peak level 94.4 %
Extraction speed 1.7 X
Track quality 100.0 %
Test CRC 659CB171
Copy CRC 659CB171
Accurately ripped (confidence 1) [A7F840BB] (AR v2)
Copy OK

Track 2

Filename F:\Music\Pirates of The Mississippi - Dream You (1993)\02. I Quit Lyin' In 1986.wav

Pre-gap length 0:00:00.82

Peak level 94.4 %
Extraction speed 1.9 X
Track quality 100.0 %
Test CRC 9C1AC703
Copy CRC 9C1AC703
Accurately ripped (confidence 1) [19D54E35] (AR v2)
Copy OK

Track 3

Filename F:\Music\Pirates of The Mississippi - Dream You (1993)\03. The Night They Rocked The Grand Ole Opry.wav

Pre-gap length 0:00:01.50

Peak level 94.4 %
Extraction speed 1.9 X
Track quality 99.9 %
Test CRC DA8E0E23
Copy CRC DA8E0E23
Accurately ripped (confidence 1) [6AAB5707] (AR v2)
Copy OK

Track 4

Filename F:\Music\Pirates of The Mississippi - Dream You (1993)\04. The Wild Side Of Life.wav

Peak level 94.4 %
Extraction speed 2.1 X
Track quality 100.0 %
Test CRC 68FF63FD
Copy CRC 68FF63FD
Accurately ripped (confidence 1) [7627FFA5] (AR v2)
Copy OK

Track 5

Filename F:\Music\Pirates of The Mississippi - Dream You (1993)\05. I'm Here To Stay.wav

Pre-gap length 0:00:00.60

Peak level 94.4 %
Extraction speed 2.4 X
Track quality 100.0 %
Test CRC C1491536
Copy CRC C1491536
Accurately ripped (confidence 1) [B7336F30] (AR v2)
Copy OK

Track 6

Filename F:\Music\Pirates of The Mississippi - Dream You (1993)\06. People My Age.wav

Pre-gap length 0:00:00.29

Peak level 94.4 %
Extraction speed 2.4 X
Track quality 100.0 %
Test CRC A873025B
Copy CRC A873025B
Accurately ripped (confidence 1) [9298F746] (AR v2)
Copy OK

Track 7

Filename F:\Music\Pirates of The Mississippi - Dream You (1993)\07. When Times Were Good.wav

Pre-gap length 0:00:00.80

Peak level 94.4 %
Extraction speed 2.7 X
Track quality 100.0 %
Test CRC 5FD3E7BD
Copy CRC 5FD3E7BD
Accurately ripped (confidence 1) [B8BCD95D] (AR v2)
Copy OK

Track 8

Filename F:\Music\Pirates of The Mississippi - Dream You (1993)\08. Save The Wild Life.wav

Pre-gap length 0:00:00.36

Peak level 94.4 %
Extraction speed 2.6 X
Track quality 100.0 %
Test CRC 09FAE361
Copy CRC 09FAE361
Accurately ripped (confidence 1) [5F375FB2] (AR v2)
Copy OK

Track 9

Filename F:\Music\Pirates of The Mississippi - Dream You (1993)\09. What I Want And What I Get.wav

Pre-gap length 0:00:00.69

Peak level 94.4 %
Extraction speed 2.8 X
Track quality 100.0 %
Test CRC 2CC3C62C
Copy CRC 2CC3C62C
Accurately ripped (confidence 1) [709032B4] (AR v2)
Copy OK

Track 10

Filename F:\Music\Pirates of The Mississippi - Dream You (1993)\10. Pop From The Top.wav

Pre-gap length 0:00:00.53

Peak level 94.4 %
Extraction speed 2.2 X
Track quality 99.9 %
Test CRC CEB12191
Copy CRC CEB12191
Accurately ripped (confidence 1) [6B4B58A5] (AR v2)
Copy OK


All tracks accurately ripped

No errors occurred

End of status report

–– CUETools DB Plugin V2.1.4

[CTDB TOCID: 5zUH2u2oh3rmxc0pauzqEZDL3uM-] found
Submit result: already submitted
Track | CTDB Status
1 | (1/1) Accurately ripped
2 | (1/1) Accurately ripped
3 | (1/1) Accurately ripped
4 | (1/1) Accurately ripped
5 | (1/1) Accurately ripped
6 | (1/1) Accurately ripped
7 | (1/1) Accurately ripped
8 | (1/1) Accurately ripped
9 | (1/1) Accurately ripped
10 | (1/1) Accurately ripped


==== Log checksum 4DE0ED8F508AA050FC406CAD81FC348B6B559A5637C65D4B02A93DE3BB061F55 ====

foobar2000 1.3.16 / Dynamic Range Meter 1.1.1
log date: 2018-09-09 12:13:54

––––––––––––––––––––––––––––––––––––––––
Analyzed: Pirates Of The Mississippi / Dream You
––––––––––––––––––––––––––––––––––––––––

DR Peak RMS Duration Track
––––––––––––––––––––––––––––––––––––––––
DR12 -0.50 dB -14.41 dB 2:49 01-Dream You
DR12 -0.50 dB -15.03 dB 3:04 02-I Quit Lyin' In 1986
DR13 -0.50 dB -15.76 dB 4:20 03-The Night They Rocked The Grand Ole Opry
DR14 -0.50 dB -15.61 dB 2:42 04-The Wild Side Of Life
DR12 -0.50 dB -15.01 dB 3:36 05-I'm Here To Stay
DR12 -0.50 dB -14.59 dB 2:47 06-People My Age
DR14 -0.50 dB -18.33 dB 4:07 07-When Times Were Good
DR13 -0.50 dB -14.59 dB 2:33 08-Save The Wild Life
DR13 -0.50 dB -15.20 dB 3:30 09-What I Want And What I Get
DR12 -0.50 dB -14.44 dB 2:21 10-Pop From The Top
––––––––––––––––––––––––––––––––––––––––

Number of tracks: 10
Official DR value: DR13

Samplerate: 44100 Hz
Channels: 2
Bits per sample: 16
Bitrate: 919 kbps
Codec: FLAC
================================================================================

[CUETools log; Date: 09.09.2018 12:13:15; Version: 2.1.6]
[CTDB TOCID: 5zUH2u2oh3rmxc0pauzqEZDL3uM-] found.
Track | CTDB Status
1 | (7/7) Accurately ripped
2 | (7/7) Accurately ripped
3 | (7/7) Accurately ripped
4 | (7/7) Accurately ripped
5 | (7/7) Accurately ripped
6 | (7/7) Accurately ripped
7 | (7/7) Accurately ripped
8 | (7/7) Accurately ripped
9 | (7/7) Accurately ripped
10 | (7/7) Accurately ripped
[AccurateRip ID: 000c3d72-00620eb2-9307740a] found.
Track [ CRC | V2 ] Status
01 [f7de1242|a7f840bb] (0+3/3) Accurately ripped
02 [13fadee8|19d54e35] (0+3/3) Accurately ripped
03 [413627c5|6aab5707] (0+3/3) Accurately ripped
04 [ea8ca32e|7627ffa5] (0+3/3) Accurately ripped
05 [422a2546|b7336f30] (0+3/3) Accurately ripped
06 [22a30cda|9298f746] (0+3/3) Accurately ripped
07 [04e13f37|b8bcd95d] (0+3/3) Accurately ripped
08 [7ce091f1|5f375fb2] (0+3/3) Accurately ripped
09 [34e2831f|709032b4] (0+3/3) Accurately ripped
10 [71e91d9d|6b4b58a5] (0+3/3) Accurately ripped

Track Peak [ CRC32 ] [W/O NULL] [ LOG ]
– 94,4 [AEF3BEC9] [2E966862]
01 94,4 [659CB171] [99A9A4D9] CRC32
02 94,4 [9C1AC703] [C1166DD1] CRC32
03 94,4 [DA8E0E23] [B27BE25E] CRC32
04 94,4 [68FF63FD] [1E367C5E] CRC32
05 94,4 [C1491536] [9828E13D] CRC32
06 94,4 [A873025B] [9B131D86] CRC32
07 94,4 [5FD3E7BD] [C14DB25E] CRC32
08 94,4 [09FAE361] [E3E73427] CRC32
09 94,4 [2CC3C62C] [219C7745] CRC32
10 94,4 [CEB12191] [F6DEE524] CRC32

Pirates Of The Mississippi - Dream You (1993)

All thanks go to the original ripper(s) …

>>> My Blog <<<

Download from icerbox.com: