Subcategories
Please register here if you want to download anything!

If domain in your address bar is different from the list below
PLEASE LEAVE THAT SITE IMMEDIATELY
❗IT'S A DANGEROUS FAKE❗



Spicy Magazines for Men! ;-)

Paul Butterfield Blues Band - Live (1970)

Posted By: v3122
Paul Butterfield Blues Band - Live (1970)

Paul Butterfield Blues Band - Live (1970)
EAC | Flac(Image) + Cue + Log & MP3 CBR 320Kbps
2015 | 2CD | Rhino, 081227951955-6 | ~ 959 or 347 Mb | Scans(png) -> 87 Mb
Rock, Blues Rock, Chicago Blues

For the Paul Butterfield Blues Band, this two-LP set proved that it all came down to Butterfield himself and his abilities as a leader in the end. For all of the adulation heaped on Mike Bloomfield, Elvin Bishop, et al., the group was ultimately an extension of Butterfield's abilities as a leader and player, and this set proved that Butterfield and the bandmembers he had assembled in 1971 had more than two LPs' worth of live playing in them that was worth releasing and worth buying. And that wasn't the half of it – talk about ironies – at the time the Paul Butterfield Blues Band recorded this live album, they were at their peak as a concert act; they were getting all the bookings they wanted at the best clubs in the biggest cities in the country, and a lot of other places as well, in front of enthusiastic audiences who were devouring their blues-jazz-rock-R&B hybrid sound as fast as they could pump it out on-stage. They just weren't selling many records, which was why few people ever got to hear this album. The four-man horn section and the single guitar are a long way from the band that dazzled audiences six years earlier on East-West, or at Monterey in 1967; this is big-band Chicago blues with a jazz base and a killer sound, ranging all over the musical map without peer. In the midst of all of those seemingly louder instruments blowing away, however, one can still find a great showcase for Butterfield's blues harp on numbers like Big Walter Horton's "Everything's Gonne Be Alright." The sound, recorded on then state-of-the-art equipment at the L.A. Troubadour, is excellent and the performances are as tight as anything ever delivered by the band, in many ways fulfilling the promise of the longer numbers represented on their earlier studio albums. The original double LP is still worth finding for vinyl enthusiasts.

by Bruce Eder, AMG
Paul Butterfield Blues Band - Live (1970)


Paul Butterfield Blues Band - Live (1970):

Paul Butterfield Blues Band - Live (1970)

Tracklist CD1:

01. Everything Going To Be Alright 10:08
02. Love Disease 04:01
03. The Boxer 06:38
04. No Amount Of Loving 05:53
05. Driftin’ And Driftin’ 13:43
06. Intro To Musicians 01:45
07. Number Nine 10:10
08. I Want To Be With You 03:55
09. Born Under A Bad Sign 05:43
10. Get Together Again 06;29
11. So Far, So Good 09:17

Exact Audio Copy V1.1 from 23. June 2015

EAC extraction logfile from 14. May 2016, 17:37

Paul Butterfield Blues Band / Live CD1

Used drive : PLEXTOR BD-R PX-B950SA Adapter: 1 ID: 1

Read mode : Secure
Utilize accurate stream : Yes
Defeat audio cache : Yes
Make use of C2 pointers : No

Read offset correction : 6
Overread into Lead-In and Lead-Out : No
Fill up missing offset samples with silence : Yes
Delete leading and trailing silent blocks : No
Null samples used in CRC calculations : Yes
Used interface : Native Win32 interface for Win NT & 2000

Used output format : Internal WAV Routines
Sample format : 44.100 Hz; 16 Bit; Stereo


TOC of the extracted CD

Track | Start | Length | Start sector | End sector
––––––––––––––––––––––––––––-
1 | 0:00.00 | 10:08.16 | 0 | 45615
2 | 10:08.16 | 4:01.36 | 45616 | 63726
3 | 14:09.52 | 6:38.48 | 63727 | 93624
4 | 20:48.25 | 5:53.17 | 93625 | 120116
5 | 26:41.42 | 13:43.35 | 120117 | 181876
6 | 40:25.02 | 1:45.33 | 181877 | 189784
7 | 42:10.35 | 10:10.40 | 189785 | 235574
8 | 52:21.00 | 3:55.14 | 235575 | 253213
9 | 56:16.14 | 5:43.48 | 253214 | 278986
10 | 61:59.62 | 6:29.47 | 278987 | 308208
11 | 68:29.34 | 9:17.74 | 308209 | 350057


Range status and errors

Selected range

Filename C:\Users\Meijin\Desktop\ALLexxess\Paul Butterfield\2015 Complete Albums 1965-1980 (14CD Box Set Rhino Records)\1970 Live 2CD\CD1\Paul Butterfield Blues Band - Live CD1.wav

Peak level 100.0 %
Extraction speed 7.0 X
Range quality 100.0 %
Test CRC 867B2603
Copy CRC 867B2603
Copy OK

No errors occurred


AccurateRip summary

Track 1 accurately ripped (confidence 2) [7F090660] (AR v2)
Track 2 accurately ripped (confidence 2) [321F66E6] (AR v2)
Track 3 accurately ripped (confidence 2) [CF5D4F98] (AR v2)
Track 4 accurately ripped (confidence 2) [B2986D2D] (AR v2)
Track 5 accurately ripped (confidence 2) [909C883E] (AR v2)
Track 6 accurately ripped (confidence 2) [BABFE905] (AR v2)
Track 7 accurately ripped (confidence 2) [A3165DF9] (AR v2)
Track 8 accurately ripped (confidence 2) [5D59E87F] (AR v2)
Track 9 accurately ripped (confidence 2) [6ADB94E1] (AR v2)
Track 10 accurately ripped (confidence 2) [782F30C6] (AR v2)
Track 11 accurately ripped (confidence 2) [E838202F] (AR v2)

All tracks accurately ripped

End of status report

–– CUETools DB Plugin V2.1.6

[CTDB TOCID: SOc8oElcTKh4RbRz0Y79t7YWp30-] found
Submit result: SOc8oElcTKh4RbRz0Y79t7YWp30- has been confirmed
Track | CTDB Status
1 | (5/5) Accurately ripped
2 | (5/5) Accurately ripped
3 | (5/5) Accurately ripped
4 | (5/5) Accurately ripped
5 | (5/5) Accurately ripped
6 | (5/5) Accurately ripped
7 | (5/5) Accurately ripped
8 | (5/5) Accurately ripped
9 | (5/5) Accurately ripped
10 | (5/5) Accurately ripped
11 | (5/5) Accurately ripped


==== Log checksum C20CE2291F7A1B06274378F628C71D2B7BA19227CC1CFE99CDA11BBCA69405DC ====

foobar2000 1.2.9 / Dynamic Range Meter 1.1.1
log date: 2016-05-31 21:56:01

––––––––––––––––––––––––––––––––––––––––
Analyzed: Paul Butterfield Blues Band / Live CD1
––––––––––––––––––––––––––––––––––––––––

DR Peak RMS Duration Track
––––––––––––––––––––––––––––––––––––––––
DR9 -0.41 dB -12.77 dB 10:08 01-Everything Going To Be Alright
DR9 -0.31 dB -11.37 dB 4:01 02-Love Disease
DR10 0.00 dB -11.89 dB 6:39 03-The Boxer
DR10 -0.59 dB -12.03 dB 5:53 04-No Amount Of Loving
DR11 -0.33 dB -15.39 dB 13:43 05-Drintin' And Driftin'
DR13 -2.21 dB -20.05 dB 1:45 06-Intro To Musicians
DR10 -0.35 dB -12.47 dB 10:11 07-Number Nine
DR10 0.00 dB -13.13 dB 3:55 08-I Want To Be With You
DR12 0.00 dB -14.25 dB 5:44 09-Born Under A Bad Sign
DR12 -0.53 dB -16.21 dB 6:30 10-Get Together Again
DR10 -0.36 dB -12.63 dB 9:18 11-So Far, So Good
––––––––––––––––––––––––––––––––––––––––

Number of tracks: 11
Official DR value: DR11

Samplerate: 44100 Hz
Channels: 2
Bits per sample: 16
Bitrate: 931 kbps
Codec: FLAC

[CUETools log; Date: 31.05.2016 21:43:20; Version: 2.1.4]
[CTDB TOCID: SOc8oElcTKh4RbRz0Y79t7YWp30-] found.
Track | CTDB Status
1 | (6/6) Accurately ripped
2 | (6/6) Accurately ripped
3 | (6/6) Accurately ripped
4 | (6/6) Accurately ripped
5 | (6/6) Accurately ripped
6 | (6/6) Accurately ripped
7 | (6/6) Accurately ripped
8 | (6/6) Accurately ripped
9 | (6/6) Accurately ripped
10 | (6/6) Accurately ripped
11 | (6/6) Accurately ripped
[AccurateRip ID: 00205c56-01160a4f-78123b0b] found.
Track [ CRC | V2 ] Status
01 [c4b306b2|7f090660] (0+2/2) Accurately ripped
02 [499da21a|321f66e6] (0+2/2) Accurately ripped
03 [7b9148e2|cf5d4f98] (0+2/2) Accurately ripped
04 [0ee904cc|b2986d2d] (0+2/2) Accurately ripped
05 [155ee424|909c883e] (0+2/2) Accurately ripped
06 [70a012da|babfe905] (0+2/2) Accurately ripped
07 [9ae9a73c|a3165df9] (0+2/2) Accurately ripped
08 [b415823f|5d59e87f] (0+2/2) Accurately ripped
09 [755235af|6adb94e1] (0+2/2) Accurately ripped
10 [41c07215|782f30c6] (0+2/2) Accurately ripped
11 [a4193448|e838202f] (0+2/2) Accurately ripped

Track Peak [ CRC32 ] [W/O NULL] [ LOG ]
– 100,0 [867B2603] [34DED9B8] CRC32
01 95,3 [C0AFEF00] [1634F9A7]
02 96,5 [CC495DBB] [81D448ED]
03 100,0 [EEA8955F] [4043F27B]
04 93,4 [F3FA2E31] [9D23F2B8]
05 96,2 [ADB96339] [67080348]
06 77,5 [CF0FE466] [55D93C3D]
07 96,1 [FC727339] [0565BA0F]
08 100,0 [49753442] [8C618D23]
09 100,0 [E7E15A1B] [3341EFC2]
10 94,0 [4ED3F153] [640DC096]
11 95,9 [5BAF53FC] [B4FBE152]

Paul Butterfield Blues Band - Live (1970)

Tracklist CD2:

01. Gene’s Tune 12:29
02. Nobody’s Fault But Mine 06:58
03. Losing Hand 14:28
04. All In A Day 08:10
05. Feel So Bad 04:43
06. Except You 04:50
07. You’ve Got To Love Her With A Feeling 05:23
08. Love March 12:25

Exact Audio Copy V1.1 from 23. June 2015

EAC extraction logfile from 14. May 2016, 16:58

Paul Butterfield Blues Band / Live CD2

Used drive : PLEXTOR BD-R PX-B950SA Adapter: 1 ID: 1

Read mode : Secure
Utilize accurate stream : Yes
Defeat audio cache : Yes
Make use of C2 pointers : No

Read offset correction : 6
Overread into Lead-In and Lead-Out : No
Fill up missing offset samples with silence : Yes
Delete leading and trailing silent blocks : No
Null samples used in CRC calculations : Yes
Used interface : Native Win32 interface for Win NT & 2000

Used output format : Internal WAV Routines
Sample format : 44.100 Hz; 16 Bit; Stereo


TOC of the extracted CD

Track | Start | Length | Start sector | End sector
––––––––––––––––––––––––––––-
1 | 0:00.00 | 12:29.21 | 0 | 56195
2 | 12:29.21 | 6:58.30 | 56196 | 87575
3 | 19:27.51 | 14:28.32 | 87576 | 152707
4 | 33:56.08 | 8:10.62 | 152708 | 189519
5 | 42:06.70 | 4:43.33 | 189520 | 210777
6 | 46:50.28 | 4:50.62 | 210778 | 232589
7 | 51:41.15 | 5:23.36 | 232590 | 256850
8 | 57:04.51 | 12:25.36 | 256851 | 312761


Range status and errors

Selected range

Filename C:\Users\Meijin\Desktop\ALLexxess\Paul Butterfield\2015 Complete Albums 1965-1980 (14CD Box Set Rhino Records)\1970 Live 2CD\CD2\Paul Butterfield Blues Band - Live CD2.wav

Peak level 98.8 %
Extraction speed 8.4 X
Range quality 100.0 %
Test CRC 3FCFBD4E
Copy CRC 3FCFBD4E
Copy OK

No errors occurred


AccurateRip summary

Track 1 accurately ripped (confidence 2) [0EF2AB28] (AR v2)
Track 2 accurately ripped (confidence 2) [8067A90D] (AR v2)
Track 3 accurately ripped (confidence 2) [A292FB7D] (AR v2)
Track 4 accurately ripped (confidence 2) [1EE55D9E] (AR v2)
Track 5 accurately ripped (confidence 2) [C187310B] (AR v2)
Track 6 accurately ripped (confidence 2) [D5A54BC6] (AR v2)
Track 7 accurately ripped (confidence 2) [3868381B] (AR v2)
Track 8 accurately ripped (confidence 2) [97905E7E] (AR v2)

All tracks accurately ripped

End of status report

–– CUETools DB Plugin V2.1.6

[CTDB TOCID: fWd.r.lQbsrRO5Zn7X25TrbUxXo-] found
Submit result: fWd.r.lQbsrRO5Zn7X25TrbUxXo- has been confirmed
Track | CTDB Status
1 | (5/5) Accurately ripped
2 | (5/5) Accurately ripped
3 | (5/5) Accurately ripped
4 | (5/5) Accurately ripped
5 | (5/5) Accurately ripped
6 | (5/5) Accurately ripped
7 | (5/5) Accurately ripped
8 | (4/5) Accurately ripped, or (1/5) differs in 114 samples @12:14:50,12:16:07,12:16:72


==== Log checksum E3E0F51432829D5D6C5FC7F2F704B1491703CDF3AD05A3F83F8491217B4F2054 ====

foobar2000 1.2.9 / Dynamic Range Meter 1.1.1
log date: 2016-05-31 21:55:30

––––––––––––––––––––––––––––––––––––––––
Analyzed: Paul Butterfield Blues Band / Live CD2
––––––––––––––––––––––––––––––––––––––––

DR Peak RMS Duration Track
––––––––––––––––––––––––––––––––––––––––
DR9 -0.10 dB -11.93 dB 12:29 01-Gene's Tune
DR12 -0.10 dB -13.38 dB 6:58 02-Nobody's Fault But Mine
DR12 -0.10 dB -17.20 dB 14:28 03-Losing Hand
DR11 -0.10 dB -13.34 dB 8:11 04-All In A Day
DR10 -0.10 dB -11.57 dB 4:43 05-Feel So Bad
DR11 -0.10 dB -16.13 dB 4:51 06-Except You
DR11 -0.10 dB -13.58 dB 5:23 07-You've Got To Love Her With A Feeling
DR9 -0.10 dB -13.11 dB 12:25 08-Love March
––––––––––––––––––––––––––––––––––––––––

Number of tracks: 8
Official DR value: DR11

Samplerate: 44100 Hz
Channels: 2
Bits per sample: 16
Bitrate: 828 kbps
Codec: FLAC

[CUETools log; Date: 31.05.2016 21:47:11; Version: 2.1.4]
[CTDB TOCID: fWd.r.lQbsrRO5Zn7X25TrbUxXo-] found.
Track | CTDB Status
1 | (6/6) Accurately ripped
2 | (6/6) Accurately ripped
3 | (6/6) Accurately ripped
4 | (6/6) Accurately ripped
5 | (6/6) Accurately ripped
6 | (6/6) Accurately ripped
7 | (6/6) Accurately ripped
8 | (5/6) Accurately ripped, or (1/6) differs in 114 samples @12:14:50,12:16:07,12:16:72
[AccurateRip ID: 0016df65-0093f311-61104a08] found.
Track [ CRC | V2 ] Status
01 [9ca8c9cd|0ef2ab28] (0+2/2) Accurately ripped
02 [04bd9abb|8067a90d] (0+2/2) Accurately ripped
03 [c8c03331|a292fb7d] (0+2/2) Accurately ripped
04 [b748cc1c|1ee55d9e] (0+2/2) Accurately ripped
05 [3322ac47|c187310b] (0+2/2) Accurately ripped
06 [c97a08d8|d5a54bc6] (0+2/2) Accurately ripped
07 [e6b94057|3868381b] (0+2/2) Accurately ripped
08 [27a228b9|97905e7e] (0+2/2) Accurately ripped

Track Peak [ CRC32 ] [W/O NULL] [ LOG ]
– 98,8 [3FCFBD4E] [001D731B] CRC32
01 98,8 [FBC04D94] [90F4EF3B]
02 98,8 [FBE4BCE4] [99665C26]
03 98,8 [FCDB8AA4] [866DE6EF]
04 98,8 [6BE30122] [A6CC4EF8]
05 98,8 [7EB4A240] [0EDE876B]
06 98,8 [01DD33E0] [2C1F789D]
07 98,8 [2AD23B20] [D4A0F0AB]
08 98,8 [A4220642] [E7DE8A99]

All thanks go to ALLexxess

Paul Butterfield in my Blog

Download Paul Butterfield Blues Band - Live (1970):