Subcategories

Otros Aires - Dos (2007)

Posted By: gribovar
Otros Aires - Dos (2007)

Otros Aires - Dos (2007)
EAC Rip | FLAC (image+.cue+log) - 264 MB | MP3 CBR 320 kbps (LAME 3.93) - 109 MB | Covers (19 MB) included
Genre: Electronic Tango | RAR 3% Rec. | Label: Union De Musicos Independientes

Often referred to as 'Electronic-Milonga' or 'neo-tango' and founded in 2003 in Barcelona by Argentine musician Miguel Di Genova, with Emmanuel Mayol, Omar Massa and Diego Ramos making up the band. They reference the classic tango artists from the 1920's and 30's, such as Gardel, Razzano and D'Arienzo for their inspiration and source. But it's what they do to it that brings it kicking and screaming into the 21st century - in exuberant fashion - that makes it such great new music. You will certainly hear samples of Carlos Gardél's 1930s vocals, with Astor Piazzolla's accordian thrown in to the mix. This second album and their debut were smash hits in Argentina and although they could be difficult to find, they're well worth the effort.
Tracklist:
01. Allerdings Otros Aires
02. Otro Puente Alsina
03. Otra Noche en "La Viruta"
04. Los Vino'
05. Niebla del Riachuelo
06. Un Baile a Beneficio (La Podrida)
07. La Yumba
08. Junto a las Piedras
09. Otra Esquina
10. A Veces

Total time: 38:01

Exact Audio Copy V1.0 beta 3 from 29. August 2011

Отчёт EAC об извлечении, выполненном 14. августа 2013, 13:04

Otros Aires / Dos

Дисковод: PLEXTOR CD-R PREMIUM2 Adapter: 0 ID: 0

Режим чтения : Достоверность
Использование точного потока : Да
Отключение кэша аудио : Да
Использование указателей C2 : Нет

Коррекция смещения при чтении : 30
Способность читать области Lead-in и Lead-out : Нет
Заполнение пропущенных сэмплов тишиной : Да
Удаление блоков с тишиной в начале и конце : Нет
При вычислениях CRC использовались нулевые сэмплы : Да
Интерфейс : Установленный внешний ASPI-интерфейс

Выходной формат : Пользовательский кодировщик
Выбранный битрейт : 1024 kBit/s
Качество : Высокий
Добавление ID3-тега : Нет
Утилита сжатия : C:\Program Files\Exact Audio Copy\Flac\flac.exe
Дополнительные параметры : -V -8 -T "Date=%year%" -T "Genre=%genre%" %source%


TOC извлечённого CD

Трек | Старт | Длительность | Начальный сектор | Конечный сектор
––––––––––––––––––––––––––––––––––-
1 | 0:00.00 | 3:46.27 | 0 | 16976
2 | 3:46.27 | 3:15.32 | 16977 | 31633
3 | 7:01.59 | 4:14.29 | 31634 | 50712
4 | 11:16.13 | 2:41.18 | 50713 | 62805
5 | 13:57.31 | 4:00.18 | 62806 | 80823
6 | 17:57.49 | 3:53.32 | 80824 | 98330
7 | 21:51.06 | 3:40.00 | 98331 | 114830
8 | 25:31.06 | 3:40.52 | 114831 | 131382
9 | 29:11.58 | 4:28.63 | 131383 | 151545
10 | 33:40.46 | 4:20.40 | 151546 | 171085
11 | 40:33.11 | 12:17.24 | 182486 | 237784


Характеристики диапазона извлечения и сообщения об ошибках

Выбранный диапазон

Имя файла E:\Otros Aires - Dos\Otros Aires - Dos.wav

Пиковый уровень 97.7 %
Скорость извлечения 1.8 X
Качество диапазона 99.9 %
CRC теста F501B458
CRC копии F501B458
Копирование… OK

Ошибок не произошло


AccurateRip: сводка

Трек 1 : извлечено точно (доверие 5) [E6E1E540] (AR v2)
Трек 2 : извлечено точно (доверие 5) [DFE4B9D4] (AR v2)
Трек 3 : извлечено точно (доверие 5) [B29D2EF6] (AR v2)
Трек 4 : извлечено точно (доверие 5) [997CCCA1] (AR v2)
Трек 5 : извлечено точно (доверие 5) [8EFFE0AF] (AR v2)
Трек 6 : извлечено точно (доверие 5) [F67EEE95] (AR v2)
Трек 7 : извлечено точно (доверие 5) [8118ED71] (AR v2)
Трек 8 : извлечено точно (доверие 5) [2CB36032] (AR v2)
Трек 9 : извлечено точно (доверие 5) [B3C8ABE7] (AR v2)
Трек 10 : извлечено точно (доверие 5) [F6F0F8A1] (AR v2)

Все треки извлечены точно

Конец отчёта

==== Контрольная сумма отчёта CE5204A73E1812963A8C88012EDAB9CD78EB090220DE9DA08CE8688D3364C69E ====

[CUETools log; Date: 25.03.2020 15:25:32; Version: 2.1.4]
CD-Extra data track length 12:17:24.
[CTDB TOCID: WthqM3YPv2.u25xX.AfydYFl.ZM-] found.
Track | CTDB Status
1 | (35/35) Accurately ripped
2 | (35/35) Accurately ripped
3 | (35/35) Accurately ripped
4 | (35/35) Accurately ripped
5 | (35/35) Accurately ripped
6 | (35/35) Accurately ripped
7 | (35/35) Accurately ripped
8 | (35/35) Accurately ripped
9 | (35/35) Accurately ripped
10 | (34/35) Accurately ripped
[AccurateRip ID: 000ee7be-007ad9f6-890c620b] found.
Track [ CRC | V2 ] Status
01 [d3aa0df4|e6e1e540] (14+19/33) Accurately ripped
02 [a0dc616e|dfe4b9d4] (14+19/33) Accurately ripped
03 [7388a0b9|b29d2ef6] (14+19/33) Accurately ripped
04 [a9d01d56|997ccca1] (14+19/33) Accurately ripped
05 [d0a6e854|8effe0af] (13+19/32) Accurately ripped
06 [0f0af20c|f67eee95] (13+19/32) Accurately ripped
07 [309b0ba1|8118ed71] (13+19/32) Accurately ripped
08 [a7031daa|2cb36032] (13+19/32) Accurately ripped
09 [8fecd265|b3c8abe7] (13+19/32) Accurately ripped
10 [bdd08597|f6f0f8a1] (13+19/32) Accurately ripped

Track Peak [ CRC32 ] [W/O NULL] [ LOG ]
– 97,7 [F501B458] [A1993544] CRC32
01 97,7 [E093E2FB] [83542BFD]
02 97,7 [D6485FBD] [83BB5E5A]
03 97,7 [491C5AD0] [20E4874E]
04 97,7 [124D3595] [ABDA6ADF]
05 97,7 [577E3735] [909D387C]
06 97,7 [7F6F13F6] [5448FEAF]
07 97,7 [141F4B48] [D2EAEFE2]
08 97,7 [49C559B6] [B18037D7]
09 97,7 [0F671462] [47ACF7FD]
10 97,7 [39C6309F] [DE037752]

Thanks to pishin

See also:
Otros Aires - 4 (2013)