Subcategories
Please register here if you want to download anything!

If domain in your address bar is different from the list below
PLEASE LEAVE THAT SITE IMMEDIATELY
❗IT'S A DANGEROUS FAKE❗



Spicy Magazines for Men! ;-)

Norah Jones - First Session (2001) {2017, EP, Japanese Reissue}

Posted By: popsakov
Norah Jones - First Session (2001) {2017, EP, Japanese Reissue}

Norah Jones - First Session (2001) {2017, EP, Japanese Reissue}
EAC Rip | FLAC (Img) + Cue + Log ~ 142 Mb | MP3 CBR320 ~ 94 Mb
Full Scans (JPG, 600 dpi) | RAR 5% Recovery
Vocal Jazz | Blue Note Records #UCCQ-1079

Listeners with even a passing familiarity with Norah Jones' fine official debut, Come Away With Me, will be captivated by First Sessions; for an artist making her earliest attempts at studio recording, Jones is remarkably assured and mature on these six cuts, revealing a unique sound and sensibility fully formed long before she signed to Blue Note. The opening "Don't Know Why" is the litmus test: the version here is nearly identical to the rendition on Come Away With Me, its impressive marriage of cocktail jazz and coffeehouse folk already solidified. Likewise, Jones' alluring readings of "Come Away With Me," "Turn Me On," and "Lonestar" anticipate the more robust versions captured on the LP. First Sessions is also worth seeking out because it contains a pair of songs yet to surface anywhere else – the Jesse Harris original "Something Is Calling You" and more intriguingly, a cover of jazz legend Horace Silver's "Peace."
~ All Music

***************

Norah Jones - First Session (2001) {2017, EP, Japanese Reissue}

Norah Jones - First Session (2001) {2017, EP, Japanese Reissue}

Track List:

01. Don't Know Why [0:03:10.65]
02. Come Away with Me [0:03:05.69]
03. Something is Calling You [0:03:25.54]
04. Turn Me On [0:02:37.59]
05. Lonestar [0:03:06.32]
06. Peace [0:03:52.71]

Exact Audio Copy V1.0 beta 3 from 29. August 2011

Отчёт EAC об извлечении, выполненном 30. декабря 2017, 18:16

Norah Jones / First Sessions

Дисковод: PLEXTOR DVDR PX-755A Adapter: 1 ID: 0

Режим чтения : Достоверность
Использование точного потока : Да
Отключение кэша аудио : Да
Использование указателей C2 : Нет

Коррекция смещения при чтении : 30
Способность читать области Lead-in и Lead-out : Нет
Заполнение пропущенных сэмплов тишиной : Да
Удаление блоков с тишиной в начале и конце : Нет
При вычислениях CRC использовались нулевые сэмплы : Да
Интерфейс : Установленный внешний ASPI-интерфейс

Выходной формат : Пользовательский кодировщик
Выбранный битрейт : 1024 kBit/s
Качество : Высокий
Добавление ID3-тега : Нет
Утилита сжатия : C:\Program Files (x86)\Exact Audio Copy\Flac\flac.exe
Дополнительные параметры : -V -8 -T "Date=%year%" -T "Genre=%genre%" %source%


TOC извлечённого CD

Трек | Старт | Длительность | Начальный сектор | Конечный сектор
––––––––––––––––––––––––––––––––––-
1 | 0:00.00 | 3:10.65 | 0 | 14314
2 | 3:10.65 | 3:05.69 | 14315 | 28258
3 | 6:16.59 | 3:25.54 | 28259 | 43687
4 | 9:42.38 | 2:37.59 | 43688 | 55521
5 | 12:20.22 | 3:06.32 | 55522 | 69503
6 | 15:26.54 | 3:52.71 | 69504 | 86974


Характеристики диапазона извлечения и сообщения об ошибках

Выбранный диапазон

Имя файла E:\РАЗДАЧА\Norah Jones - First Session [2017 Japan]\Norah Jones - First Sessions.wav

Пиковый уровень 99.7 %
Скорость извлечения 6.4 X
Качество диапазона 99.9 %
CRC копии 4409EDE0
Копирование… OK

Ошибок не произошло


AccurateRip: сводка

Трек 1 отсутствует в базе данных
Трек 2 отсутствует в базе данных
Трек 3 отсутствует в базе данных
Трек 4 отсутствует в базе данных
Трек 5 отсутствует в базе данных
Трек 6 отсутствует в базе данных

Ни одного трека нет в базе AccurateRip

Конец отчёта

==== Контрольная сумма отчёта 91DE6CE7C1646E5E9F0AAEE7A524A7C63BBBC70D7E2BF29C0E8A9423E8DC3DBC ====

foobar2000 1.3.16 / Dynamic Range Meter 1.1.1
log date: 2017-12-31 11:19:43

––––––––––––––––––––––––––––––––––––––––
Analyzed: Norah Jones / First Sessions
––––––––––––––––––––––––––––––––––––––––

DR Peak RMS Duration Track
––––––––––––––––––––––––––––––––––––––––
DR13 -2.28 dB -18.52 dB 3:11 01-Don't Know Why
DR12 -1.82 dB -17.55 dB 3:06 02-Come Away with Me
DR13 -2.28 dB -18.23 dB 3:26 03-Something is Calling You
DR14 -0.16 dB -17.68 dB 2:38 04-Turn Me On
DR13 -0.11 dB -17.15 dB 3:06 05-Lonestar
DR15 -0.02 dB -19.67 dB 3:53 06-Peace
––––––––––––––––––––––––––––––––––––––––

Number of tracks: 6
Official DR value: DR13

Samplerate: 44100 Hz
Channels: 2
Bits per sample: 16
Bitrate: 646 kbps
Codec: FLAC
================================================================================

[CUETools log; Date: 31.12.2017 11:19:51; Version: 2.1.5]
[CTDB TOCID: 89vkr3xHH_bK7Q1fWqOnIhrPAYE-] found.
Track | CTDB Status
1 | (12/12) Accurately ripped
2 | (12/12) Accurately ripped
3 | (12/12) Accurately ripped
4 | (12/12) Accurately ripped
5 | (12/12) Accurately ripped
6 | (12/12) Accurately ripped
[AccurateRip ID: 00048d17-00184943-51048706] disk not present in database.

Track Peak [ CRC32 ] [W/O NULL] [ LOG ]
– 99,7 [4409EDE0] [9DAF5E91] CRC32
01 76,9 [E91816DE] [0B4313EE]
02 81,1 [0E8EE14A] [F7923777]
03 76,8 [3623F0C1] [34F6C035]
04 98,1 [C6B98212] [6DE37A38]
05 98,7 [3CBDCAFB] [CA9ABF2A]
06 99,7 [515EE166] [C7DA9B11]

Norah Jones - First Session (2001) {2017, EP, Japanese Reissue}

All thanks go to pishin

>>> Norah Jones in my Blog <<<

Download from icerbox.com: