Subcategories
Tags
Language
Tags

Riccardo Chailly, Gewandhausorchester Leipzig - Mahler: Symphony No.9 (2014) [Blu-Ray]

Posted By: Vilboa
Riccardo Chailly, Gewandhausorchester Leipzig - Mahler: Symphony No.9 (2014) [Blu-Ray]

Riccardo Chailly, Gewandhausorchester Leipzig - Mahler: Symphony No.9 (2014) [Blu-Ray]
BluRay | BDMV | MPEG-2 Video / 18001 kbps / 1080i / 29,970 fps | 85 min+29 min (bonus) | 22,5 Gb
Audio1: LPCM Audio / 2.0 / 24-bit | Audio2: DTS-HD Master Audio / 5.1 / 48 kHz / 4012 kbps / 24-bit

BluRay-rip | AVC | MKV 1920x1080 / 9322 kbps / 29,97 fps | 85 min | 6,50 Gb
Audio: DTS / 6ch / 48.0 KHz / 24 bits
Classical | Accentus Music

Theodor W. Adorno regarded Mahlers Symphony No. 9 as the first work of modern music. Adornos teacher, Alban Berg, saw in it the expression of a tremendous love for this world, a longing to live in peace and to savor Nature to its depths before the arrival of Death. For it will inevitably come. This live recording of the composers last completed symphony is part of an ongoing Leipzig cycle of Mahlers symphonies. It confirms once more the Gewandhaus Orchestras reputation as an exemplary ensemble for the performance of Mahlers music. The highest level of performance culture combined with a sharply contoured, transparent, polished, and detailed manner of playing, plus infectious verve and an unmistakable sound characterized by a darkly golden color these are qualities responsible for the Gewandhaus Orchestras international reputation. Since the time of Bruno Walter, the orchestra has developed over the years a deep understanding of the works of Gustav Mahler, which in their collaboration with Riccardo Chailly has been continued.

Cast:
Gewandhausorchester Leipzig
Conductor - Riccardo Chailly

Track List:
01. Opening
Sinfonie Nr. 9 D-Dur
02. I. Andante comodo
03. II. Im Tempo eines gemächlichen Ländlers. Etwas täppisch und sehr derb
04. III. Rondo-Burleske: Allegro assai. Sehr trotzig
05. IV. Adagio. Sehr langsam und noch zurückhaltend
06. Credits
Bonus:
- Riccardo Chailly on Mahler 9
- Riccardo Chailly in conversation with Henry-Louis de La Grange


Disc Title: CHAILLY MAHLER 9
Disc Size: 24 263 013 195 bytes
Protection: AACS
BD-Java: Yes
Playlist: 00003.MPLS
Size: 16 612 629 888 bytes
Length: 1:25:58.686
Total Bitrate: 25,76 Mbps
Video: MPEG-4 AVC Video / 18001 kbps / 1080i / 29,970 fps / 16:9 / High Profile 4.1
Audio: Undetermined / DTS-HD Master Audio / 5.1 / 48 kHz / 4012 kbps / 24-bit (DTS Core: 5.1 / 48 kHz / 1509 kbps / 24-bit)
Audio: Undetermined / LPCM Audio / 2.0 / 48 kHz / 2304 kbps / 24-bit


General
Unique ID : 171893001524393660903920286911067112410 (0x8151634C89FE77E3800FCEDA88D4C3DA)
Complete name : C:\Mahler_Symphony_9.mkv
Format : Matroska
Format version : Version 2
File size : 6.51 GiB
Duration : 1h 25mn
Overall bit rate : 10.8 Mbps
Movie name : Mahler_Symphony_9
Encoded date : UTC 2018-06-06 10:36:01
Writing application : DVDFab 9.1.6.8
Writing library : libebml v0.7.8 + libmatroska v0.8.1

Video
ID : 1
Format : AVC
Format/Info : Advanced Video Codec
Format profile : High@L4.1
Format settings, CABAC : Yes
Format settings, ReFrames : 2 frames
Codec ID : V_MPEG4/ISO/AVC
Duration : 1h 25mn
Bit rate : 9 322 Kbps
Width : 1 920 pixels
Height : 1 080 pixels
Display aspect ratio : 16:9
Frame rate mode : Constant
Frame rate : 29.970 fps
Color space : YUV
Chroma subsampling : 4:2:0
Bit depth : 8 bits
Scan type : Progressive
Bits/(Pixel*Frame) : 0.150
Stream size : 5.47 GiB (84%)
Writing library : x264 core 142
Encoding settings : cabac=1 / ref=1 / deblock=1:-1:-1 / analyse=0x3:0 / me=hex / subme=5 / psy=0 / mixed_ref=0 / me_range=16 / chroma_me=1 / trellis=0 / 8x8dct=1 / cqm=0 / deadzone=21,11 / fast_pskip=1 / chroma_qp_offset=0 / threads=8 / lookahead_threads=2 / sliced_threads=0 / nr=0 / decimate=1 / interlaced=0 / bluray_compat=0 / constrained_intra=0 / bframes=2 / b_pyramid=0 / b_adapt=1 / b_bias=0 / direct=1 / weightb=1 / open_gop=0 / weightp=0 / keyint=24 / keyint_min=13 / scenecut=40 / intra_refresh=0 / rc=abr / mbtree=0 / bitrate=9322 / ratetol=1.0 / qcomp=0.60 / qpmin=0 / qpmax=69 / qpstep=4 / ip_ratio=1.40 / pb_ratio=1.30 / aq=1:1.00
Default : Yes
Forced : No
Color primaries : BT.709
Transfer characteristics : BT.709
Matrix coefficients : BT.709
Color range : Limited

Audio
ID : 2
Format : DTS
Format/Info : Digital Theater Systems
Mode : 16
Format settings, Endianness : Big
Codec ID : A_DTS
Duration : 1h 25mn
Bit rate mode : Constant
Bit rate : 1 509 Kbps
Channel(s) : 6 channels
Channel positions : Front: L C R, Side: L R, LFE
Sampling rate : 48.0 KHz
Bit depth : 24 bits
Compression mode : Lossy
Stream size : 928 MiB (14%)
Default : Yes
Forced : No

Menu
00:00:00.000 : en:Chapter 01
00:01:11.571 : en:Chapter 02
00:27:28.780 : en:Chapter 03
00:41:33.557 : en:Chapter 04
00:54:20.490 : en:Chapter 05
01:23:59.334 : en:Chapter 06

All screenshots taken from BDRip

Riccardo Chailly, Gewandhausorchester Leipzig - Mahler: Symphony No.9 (2014) [Blu-Ray]