Subcategories

John Williams - Close Encounters Of The Third Kind (OST) (1977) [Audio Fidelity 2015] (Repost)

Posted By: gribovar
John Williams - Close Encounters Of The Third Kind (OST) (1977) [Audio Fidelity 2015] (Repost)

John Williams - Close Encounters Of The Third Kind (OST) (1977) [Audio Fidelity 2015]
EAC Rip | FLAC (image+.cue+log) - 221 MB | MP3 CBR 320 kbps (LAME 3.93) - 104 MB | Covers - 121 MB
Genre: Soundtrack, Classical | RAR 3% Rec. | Label: Audio Fidelity (AFZ 226)

Steven Spielberg's extraterrestrial-themed follow-up to the Jaws phenomena cemented his reputation as a cinematic wunderkind capable of shameless emotional manipulation and continued blockbuster ticket sales. But Close Encounters also displayed Spielberg's wise confidence in at least one of his collaborators. Composer John Williams, fresh from the Wagnerian success of Star Wars, was allowed the unusual luxury of composing much of the Close Encounters score before principal photography began. Thus Spielberg was able (as had Sergio Leone with Morricone's Once Upon a Time in the West) to stage much of his action to the Williams music playing on the set in a rare way. The entire special-effects finale was in fact edited to match the composer's rhythms.
For his part, Williams composed arguably his most ambitious and accomplished score. Balancing his more obvious sentimental skills with refreshingly bracing doses of atonality (and just a nod to the modern Ligetti pieces Stanley Kubrick had wedded so well to 2001: A Space Odyssey). Williams produced a mature work that holds up remarkably well 40 years on; a true classic.
Tracklist:
01. Main Title And Mountain Visions
02. Nocturnal Pursuit
03. The Abduction Of Barry
04. I Can't Believe It's Real
05. Climbing Devil's Tower
06. The Arrival Of Sky Harbor
07. Night Seige
08. The Conversation
09. The Appearance Of The Visitors
10. Resolution And End Title
11. Theme From "Close Encounters Of The Third Kind"

Total time: 44:10

Exact Audio Copy V1.0 beta 2 from 29. April 2011

EAC extraction logfile from 29. November 2015, 18:45

John Williams / Close Entcounters Of The Third Kind [2015 Audio Fidelity SACD]

Used drive : HL-DT-STBD-RE BH14NS40 Adapter: 0 ID: 2

Read mode : Secure
Utilize accurate stream : Yes
Defeat audio cache : Yes
Make use of C2 pointers : No

Read offset correction : 6
Overread into Lead-In and Lead-Out : No
Fill up missing offset samples with silence : Yes
Delete leading and trailing silent blocks : No
Null samples used in CRC calculations : Yes
Used interface : Native Win32 interface for Win NT & 2000

Used output format : User Defined Encoder
Selected bitrate : 1024 kBit/s
Quality : High
Add ID3 tag : No
Command line compressor : C:\Program Files (x86)\Exact Audio Copy\Flac\flac.exe
Additional command line options : -V -0 -T "artist=%albumartist%" -T "title=%title%" -T "album=%albumtitle%" -T "date=%year%" -T "genre=%genre%" -T "tracknumber=%tracknr%" %source%


TOC of the extracted CD

Track | Start | Length | Start sector | End sector
––––––––––––––––––––––––––––-
1 | 0:00.00 | 3:17.07 | 0 | 14781
2 | 3:17.07 | 2:33.48 | 14782 | 26304
3 | 5:50.55 | 4:32.39 | 26305 | 46743
4 | 10:23.19 | 3:21.35 | 46744 | 61853
5 | 13:44.54 | 2:08.22 | 61854 | 71475
6 | 15:53.01 | 4:32.06 | 71476 | 91881
7 | 20:25.07 | 6:19.35 | 91882 | 120341
8 | 26:44.42 | 2:22.09 | 120342 | 131000
9 | 29:06.51 | 4:51.57 | 131001 | 152882
10 | 33:58.33 | 7:03.07 | 152883 | 184614
11 | 41:01.40 | 3:08.62 | 184615 | 198776


Range status and errors

Selected range

Filename C:\EAC\John Williams - (1977) Close Entcounters Of The Third Kind [2015 Audio Fidelity SACD]\John Williams - Close Entcounters Of The Third Kind [2015 Audio Fidelity SACD].wav

Peak level 100.0 %
Extraction speed 6.0 X
Range quality 99.9 %
Test CRC 0A459840
Copy CRC 0A459840
Copy OK

No errors occurred


AccurateRip summary

Track 1 not present in database
Track 2 not present in database
Track 3 not present in database
Track 4 not present in database
Track 5 not present in database
Track 6 not present in database
Track 7 not present in database
Track 8 not present in database
Track 9 not present in database
Track 10 not present in database
Track 11 not present in database

None of the tracks are present in the AccurateRip database

End of status report

==== Log checksum A82DC5E2D6F86E19DB64B190C3CA1E55195CDFCA73E9232681783C15F0266362 ====

[CUETools log; Date: 11.09.2019 15:24:04; Version: 2.1.4]
[CTDB TOCID: qV96wYwlCU2Sp91yubV.Ha2YYfc-] found.
Track | CTDB Status
1 | (32/32) Accurately ripped
2 | (32/32) Accurately ripped
3 | (32/32) Accurately ripped
4 | (32/32) Accurately ripped
5 | (32/32) Accurately ripped
6 | (32/32) Accurately ripped
7 | (32/32) Accurately ripped
8 | (32/32) Accurately ripped
9 | (32/32) Accurately ripped
10 | (32/32) Accurately ripped
11 | (32/32) Accurately ripped
[AccurateRip ID: 0010cb75-0094fa5c-910a5a0b] found.
Track [ CRC | V2 ] Status
01 [6a8fd3e8|d22a45fd] (00+16/16) Accurately ripped
02 [c55f091c|b1485f9c] (00+16/16) Accurately ripped
03 [83e8ae2e|e0e03779] (00+16/16) Accurately ripped
04 [92a3c5c7|4e81546c] (00+16/16) Accurately ripped
05 [cf64766d|2b2f65a5] (00+16/16) Accurately ripped
06 [d7faa909|ead7d8fa] (00+16/16) Accurately ripped
07 [016bc71b|23a45557] (00+16/16) Accurately ripped
08 [67df8ca9|b4818c15] (00+16/16) Accurately ripped
09 [9a8cb960|849c2327] (00+16/16) Accurately ripped
10 [73056a4d|4b38e74d] (00+16/16) Accurately ripped
11 [8120cf09|af065ec7] (00+16/16) Accurately ripped

Track Peak [ CRC32 ] [W/O NULL] [ LOG ]
– 99,9 [0A459840] [3472837E] CRC32
01 90,8 [012A5A88] [288CBD4F]
02 78,2 [B92533AE] [2676CF44]
03 78,1 [A60B180F] [2CAAF9A2]
04 70,1 [D8A4C1FC] [E1A71F39]
05 99,9 [F7A1E385] [4ECAB212]
06 82,0 [DC3CF7DB] [FBCC3F0F]
07 67,4 [04825E6A] [B40A68B8]
08 86,3 [CDB2ACCB] [8BA01EDF]
09 75,9 [E3EE1BBD] [4602FC30]
10 74,6 [728BC750] [4C15300A]
11 77,7 [01DB3A34] [63BBC929]

Thanks to flac jacket