Subcategories

John Abercrombie Quartet - The First Quartet (2015) [3CDs] {ECM 2478-80}

Posted By: tiburon
John Abercrombie Quartet - The First Quartet (2015) [3CDs] {ECM 2478-80}

John Abercrombie Quartet - The First Quartet (2015) [3CDs] {ECM 2478-80}
EAC 1.3 | FLAC tracks level 8 | Cue+Log+M3U | Full Scans 600dpi | 905MB + 5% Recovery
MP3 CBR 320 Kbps | 300MB + 5% Recovery
Genre: Jazz, Post-Bop
John Abercrombie Quartet - The First Quartet (2015) [3CDs] {ECM 2478-80}

As part of ECM'0bs Old & New Masters series of box sets, John Abercrombie's The First Quartet collects three albums recorded for the label between 1978 and 1980. Two titles, 1979's Abercrombie Quartet and 1981's M, have been unavailable for decades. By the guitarist's own admission, this band represents the guitarist's first time as a "proper" bandleader. His earlier dates on ECM had been co-led sessions (Timeless, Gateway, Sargasso Sea), a solo album (Characters), and sideman gigs (Jack DeJohnette's New Directions, David Liebman's Lookout Farm, etc.). These three dates also represent an important foundation for Abercrombie as a composer.
Track List

CD1 - Arcade (1979)

Recorded December 1978, Talent Studio, Oslo

01. Arcade (Abercrombie) 9:44
02. Nightlake (Beirach) 5:35
03. Paramour (Abercrombie) 5:10
04. Neptune (Beirach) 7:34
05. Alchemy (Beirach) 11:34

CD2 - Abercrombie Quartet (1980)

Recorded November 1979, Talent Studio, Oslo

01. Blue Wolf (Abercrombie) 8:33
02. Dear Rain (Abercrombie) 6:55
03. Stray (Beirach) 6:37
04. Madagascar (Beirach) 9:05
05. Riddles (Beirach) 8:12
06. Foolish Dog (Abercrombie) 6:19

CD3 - M (1981)

Recorded November 1980, Tonstudio Bauer, Ludwigsburg

01. Boat Song (Abercrombie) 9:58
02. M (Abercrombie) 6:19
03. What Are the Rules (Beirach) 7:34
04. Flashback (Beirach) 6:18
05. To Be (Abercrombie) 5:18
06. Veils (Beirach) 5:44
07. Pebbles (Mraz) 4:45

musicians
John Abercrombie - guitar, mandolin guitar
Richie Beirach - piano
George Mraz - double bass
Peter Donald - drums

Produced by Manfred Eicher


Exact Audio Copy V1.0 beta 3 from 29. August 2011

EAC extraction logfile from 19. April 2016, 1:12

John Abercrombie Quartet / The First Quartet - Disc 1 - Arcade (1979) [ECM 2478]

Used drive : PLEXTOR DVDR PX-L890SA Adapter: 5 ID: 1

Read mode : Secure
Utilize accurate stream : Yes
Defeat audio cache : Yes
Make use of C2 pointers : No

Read offset correction : 6
Overread into Lead-In and Lead-Out : No
Fill up missing offset samples with silence : Yes
Delete leading and trailing silent blocks : No
Null samples used in CRC calculations : Yes
Used interface : Native Win32 interface for Win NT & 2000
Gap handling : Appended to previous track

Used output format : User Defined Encoder
Selected bitrate : 128 kBit/s
Quality : High
Add ID3 tag : No
Command line compressor : C:\Program Files (x86)\Exact Audio Copy\FLAC\FLAC.EXE
Additional command line options : -8 -V -T "ARTIST=%artist%" -T "TITLE=%title%" -T "ALBUM=%albumtitle%" -T "DATE=%year%" -T "TRACKNUMBER=%tracknr%" -T "TOTALTRACKS=%numtracks%" -T "GENRE=%genre%" -T "ALBUMARTIST=%albumartist%" -T "ALBUM ARTIST=%albumartist%" -T "COMMENT=EAC Secure Mode, Test & Copy, AccurateRip, FLAC -8" %source%


TOC of the extracted CD

Track | Start | Length | Start sector | End sector
––––––––––––––––––––––––––––-
1 | 0:00.00 | 9:43.47 | 0 | 43771
2 | 9:43.47 | 5:35.24 | 43772 | 68920
3 | 15:18.71 | 5:09.50 | 68921 | 92145
4 | 20:28.46 | 7:34.05 | 92146 | 126200
5 | 28:02.51 | 11:34.00 | 126201 | 178250


Track 1

Filename E:\01 - Arcade.wav

Pre-gap length 0:00:02.00

Peak level 94.3 %
Extraction speed 3.7 X
Track quality 99.9 %
Test CRC 5ABA28C5
Copy CRC 5ABA28C5
Accurately ripped (confidence 3) [D49260E8] (AR v2)
Copy OK

Track 2

Filename E:\02 - Nightlake.wav

Peak level 89.4 %
Extraction speed 3.9 X
Track quality 99.9 %
Test CRC 1B1BAF99
Copy CRC 1B1BAF99
Accurately ripped (confidence 3) [D117FE00] (AR v2)
Copy OK

Track 3

Filename E:\03 - Paramour.wav

Peak level 76.5 %
Extraction speed 5.0 X
Track quality 100.0 %
Test CRC D9C90A77
Copy CRC D9C90A77
Accurately ripped (confidence 3) [243E4865] (AR v2)
Copy OK

Track 4

Filename E:\04 - Neptune.wav

Peak level 69.5 %
Extraction speed 5.6 X
Track quality 100.0 %
Test CRC EC9CD87D
Copy CRC EC9CD87D
Accurately ripped (confidence 3) [A81459D1] (AR v2)
Copy OK

Track 5

Filename E:\05 - Alchemy.wav

Peak level 94.4 %
Extraction speed 6.4 X
Track quality 100.0 %
Test CRC 271F0E42
Copy CRC 271F0E42
Accurately ripped (confidence 3) [090E0899] (AR v2)
Copy OK


All tracks accurately ripped

No errors occurred

End of status report

==== Log checksum 203BE808F31D523CB65409332CAF9D0417061FB5728BBB3C3B58B0CBFCD0FE12 ====

–––––––-

Exact Audio Copy V1.0 beta 3 from 29. August 2011

EAC extraction logfile from 18. April 2016, 23:50

John Abercrombie Quartet / The First Quartet - Disc 2 - Abercrombie Quartet (1980)

Used drive : PLEXTOR DVDR PX-L890SA Adapter: 5 ID: 1

Read mode : Secure
Utilize accurate stream : Yes
Defeat audio cache : Yes
Make use of C2 pointers : No

Read offset correction : 6
Overread into Lead-In and Lead-Out : No
Fill up missing offset samples with silence : Yes
Delete leading and trailing silent blocks : No
Null samples used in CRC calculations : Yes
Used interface : Native Win32 interface for Win NT & 2000
Gap handling : Appended to previous track

Used output format : User Defined Encoder
Selected bitrate : 128 kBit/s
Quality : High
Add ID3 tag : No
Command line compressor : C:\Program Files (x86)\Exact Audio Copy\FLAC\FLAC.EXE
Additional command line options : -8 -V -T "ARTIST=%artist%" -T "TITLE=%title%" -T "ALBUM=%albumtitle%" -T "DATE=%year%" -T "TRACKNUMBER=%tracknr%" -T "TOTALTRACKS=%numtracks%" -T "GENRE=%genre%" -T "ALBUMARTIST=%albumartist%" -T "ALBUM ARTIST=%albumartist%" -T "COMMENT=EAC Secure Mode, Test & Copy, AccurateRip, FLAC -8" %source%


TOC of the extracted CD

Track | Start | Length | Start sector | End sector
––––––––––––––––––––––––––––-
1 | 0:00.00 | 8:33.31 | 0 | 38505
2 | 8:33.31 | 6:54.50 | 38506 | 69605
3 | 15:28.06 | 6:36.49 | 69606 | 99354
4 | 22:04.55 | 9:05.14 | 99355 | 140243
5 | 31:09.69 | 8:12.28 | 140244 | 177171
6 | 39:22.22 | 6:18.61 | 177172 | 205582


Track 1

Filename E:\01 - Blue Wolf.wav

Pre-gap length 0:00:02.00

Peak level 93.6 %
Extraction speed 4.0 X
Track quality 100.0 %
Test CRC E0588A4F
Copy CRC E0588A4F
Accurately ripped (confidence 2) [848CFEC4] (AR v2)
Copy OK

Track 2

Filename E:\02 - Rain.wav

Peak level 71.7 %
Extraction speed 4.1 X
Track quality 99.9 %
Test CRC F4F10988
Copy CRC F4F10988
Accurately ripped (confidence 2) [BF8E4BC0] (AR v2)
Copy OK

Track 3

Filename E:\03 - Stray.wav

Peak level 82.8 %
Extraction speed 5.2 X
Track quality 100.0 %
Test CRC 7889059A
Copy CRC 7889059A
Accurately ripped (confidence 3) [E060FC00] (AR v2)
Copy OK

Track 4

Filename E:\04 - Madagascar.wav

Peak level 84.0 %
Extraction speed 5.8 X
Track quality 100.0 %
Test CRC D0B458B0
Copy CRC D0B458B0
Accurately ripped (confidence 3) [0AEA82BF] (AR v2)
Copy OK

Track 5

Filename E:\05 - Riddles.wav

Peak level 94.4 %
Extraction speed 6.3 X
Track quality 100.0 %
Test CRC E2A33353
Copy CRC E2A33353
Accurately ripped (confidence 2) [70A8ABC5] (AR v2)
Copy OK

Track 6

Filename E:\06 - Foolish Dog.wav

Peak level 87.3 %
Extraction speed 5.7 X
Track quality 99.9 %
Test CRC 13E6B5F8
Copy CRC 13E6B5F8
Accurately ripped (confidence 3) [9E59F48E] (AR v2)
Copy OK


All tracks accurately ripped

No errors occurred

End of status report

==== Log checksum 7F66BC3F9A34B3018A46E67B8D56FA5BABCABDBF603BF672DB0426E253B0E9B5 ====

––––––

Exact Audio Copy V1.0 beta 3 from 29. August 2011

EAC extraction logfile from 19. April 2016, 1:43

John Abercrombie Quartet / The First Quartet - Disc 3 - M (1981)

Used drive : PLEXTOR DVDR PX-L890SA Adapter: 5 ID: 1

Read mode : Secure
Utilize accurate stream : Yes
Defeat audio cache : Yes
Make use of C2 pointers : No

Read offset correction : 6
Overread into Lead-In and Lead-Out : No
Fill up missing offset samples with silence : Yes
Delete leading and trailing silent blocks : No
Null samples used in CRC calculations : Yes
Used interface : Native Win32 interface for Win NT & 2000
Gap handling : Appended to previous track

Used output format : User Defined Encoder
Selected bitrate : 128 kBit/s
Quality : High
Add ID3 tag : No
Command line compressor : C:\Program Files (x86)\Exact Audio Copy\FLAC\FLAC.EXE
Additional command line options : -8 -V -T "ARTIST=%artist%" -T "TITLE=%title%" -T "ALBUM=%albumtitle%" -T "DATE=%year%" -T "TRACKNUMBER=%tracknr%" -T "TOTALTRACKS=%numtracks%" -T "GENRE=%genre%" -T "ALBUMARTIST=%albumartist%" -T "ALBUM ARTIST=%albumartist%" -T "COMMENT=EAC Secure Mode, Test & Copy, AccurateRip, FLAC -8" %source%


TOC of the extracted CD

Track | Start | Length | Start sector | End sector
––––––––––––––––––––––––––––-
1 | 0:00.00 | 9:57.62 | 0 | 44836
2 | 9:57.62 | 6:19.12 | 44837 | 73273
3 | 16:16.74 | 7:33.57 | 73274 | 107305
4 | 23:50.56 | 6:17.44 | 107306 | 135624
5 | 30:08.25 | 5:17.41 | 135625 | 159440
6 | 35:25.66 | 5:44.36 | 159441 | 185276
7 | 41:10.27 | 4:45.35 | 185277 | 206686


Track 1

Filename E:\01 - Boat Song.wav

Pre-gap length 0:00:02.00

Peak level 83.6 %
Extraction speed 4.1 X
Track quality 100.0 %
Test CRC C20D1E86
Copy CRC C20D1E86
Accurately ripped (confidence 3) [9795BC9B] (AR v2)
Copy OK

Track 2

Filename E:\02 - M.wav

Peak level 79.4 %
Extraction speed 4.7 X
Track quality 100.0 %
Test CRC AF787AF5
Copy CRC AF787AF5
Accurately ripped (confidence 3) [EA1B938A] (AR v2)
Copy OK

Track 3

Filename E:\03 - What Are the Rules.wav

Peak level 85.5 %
Extraction speed 5.3 X
Track quality 100.0 %
Test CRC 0545679B
Copy CRC 0545679B
Accurately ripped (confidence 3) [1EC82D88] (AR v2)
Copy OK

Track 4

Filename E:\04 - Flashback.wav

Peak level 93.8 %
Extraction speed 5.7 X
Track quality 100.0 %
Test CRC 5EC4F65A
Copy CRC 5EC4F65A
Accurately ripped (confidence 3) [25FC160F] (AR v2)
Copy OK

Track 5

Filename E:\05 - To Be.wav

Peak level 68.2 %
Extraction speed 5.9 X
Track quality 100.0 %
Test CRC 10AF4F58
Copy CRC 10AF4F58
Accurately ripped (confidence 3) [DC51B0F8] (AR v2)
Copy OK

Track 6

Filename E:\06 - Veils.wav

Peak level 77.3 %
Extraction speed 6.4 X
Track quality 100.0 %
Test CRC 4BEF6B27
Copy CRC 4BEF6B27
Accurately ripped (confidence 3) [C1641564] (AR v2)
Copy OK

Track 7

Filename E:\07 - Pebbles.wav

Peak level 69.9 %
Extraction speed 6.5 X
Track quality 100.0 %
Test CRC 57E3403F
Copy CRC 57E3403F
Accurately ripped (confidence 3) [0BB5DDFD] (AR v2)
Copy OK


All tracks accurately ripped

No errors occurred

End of status report

==== Log checksum A0F44F16A719974D5ACC6B4231915052638496D669B28E6E3FFCB8D62264766A ====


––––––––––––––––––––––––––––––––––––––––
Analyzed: John Abercrombie Quartet / The First Quartet - Disc 1 - Arcade (1979) [ECM 2478]
––––––––––––––––––––––––––––––––––––––––

DR Peak RMS Duration Track
––––––––––––––––––––––––––––––––––––––––
DR13 -0.51 dB -17.30 dB 9:44 01-Arcade
DR12 -0.96 dB -16.59 dB 5:35 02-Nightlake
DR12 -2.33 dB -18.85 dB 5:10 03-Paramour
DR12 -3.16 dB -19.31 dB 7:34 04-Neptune
DR14 -0.50 dB -19.79 dB 11:34 05-Alchemy
––––––––––––––––––––––––––––––––––––––––

Number of tracks: 5
Official DR value: DR13

Samplerate: 44100 Hz
Channels: 2
Bits per sample: 16
Bitrate: 705 kbps
Codec: FLAC
================================================================================
––––––––––––––––––––––––––––––––––––––––
Analyzed: John Abercrombie Quartet / The First Quartet - Disc 2 - Abercrombie Quartet (1980)
––––––––––––––––––––––––––––––––––––––––

DR Peak RMS Duration Track
––––––––––––––––––––––––––––––––––––––––
DR14 -0.57 dB -18.26 dB 8:33 01-Blue Wolf
DR13 -2.88 dB -20.26 dB 6:55 02-Rain
DR14 -1.63 dB -18.66 dB 6:37 03-Stray
DR14 -1.51 dB -19.84 dB 9:05 04-Madagascar
DR14 -0.50 dB -17.29 dB 8:12 05-Riddles
DR13 -1.18 dB -18.74 dB 6:19 06-Foolish Dog
––––––––––––––––––––––––––––––––––––––––

Number of tracks: 6
Official DR value: DR13

Samplerate: 44100 Hz
Channels: 2
Bits per sample: 16
Bitrate: 729 kbps
Codec: FLAC
================================================================================
––––––––––––––––––––––––––––––––––––––––
Analyzed: John Abercrombie Quartet / The First Quartet - Disc 3 - M (1981)
––––––––––––––––––––––––––––––––––––––––

DR Peak RMS Duration Track
––––––––––––––––––––––––––––––––––––––––
DR12 -1.55 dB -20.01 dB 9:58 01-Boat Song
DR11 -2.00 dB -16.99 dB 6:19 02-M
DR13 -1.36 dB -18.96 dB 7:34 03-What Are the Rules
DR11 -0.55 dB -16.10 dB 6:18 04-Flashback
DR14 -3.32 dB -20.93 dB 5:18 05-To Be
DR11 -2.23 dB -18.36 dB 5:44 06-Veils
DR12 -3.10 dB -20.45 dB 4:45 07-Pebbles
––––––––––––––––––––––––––––––––––––––––

Number of tracks: 7
Official DR value: DR12

Samplerate: 44100 Hz
Channels: 2
Bits per sample: 16
Bitrate: 733 kbps
Codec: FLAC
================================================================================

John Abercrombie Quartet - The First Quartet (2015) [3CDs] {ECM 2478-80}
John Abercrombie Quartet - The First Quartet (2015) [3CDs] {ECM 2478-80}
John Abercrombie Quartet - The First Quartet (2015) [3CDs] {ECM 2478-80}


Thanks to the original ripper