Subcategories

Jimmy Somerville - The Very Best Of Jimmy Somerville, Bronski Beat And The Communards (2001) Repost

Posted By: popsakov
Jimmy Somerville - The Very Best Of Jimmy Somerville, Bronski Beat And The Communards (2001) Repost

Jimmy Somerville - The Very Best Of Jimmy Somerville, Bronski Beat And The Communards (2001)
EAC Rip | FLAC (Img) + Cue + Log ~ 582 Mb | MP3 CBR320 ~ 204 Mb
Full Scans | 01:15:08 | RAR 5% Recovery
London Records / Warner Strategic Marketing / Никитин #4670001545587
Synth-Pop / Electronic / Dance / Pop / Reggae / Hi-NRG

Scottish-born singer Jimmy Somerville became a surprise success in the mid-'80s. Instead of being Duran Duran-cute, Jimmy Somerville looked like the average boy next door. Instead of belting out his musical repertoire with a self-conscious urgency to prove himself as a singer (like Rick Astley or George Michael), Somerville possessed a dramatic, piercing falsetto that made the Associates' Billy Mackenzie sound like Tom Waits. But what really made Jimmy Somerville distinctive was his openness about his sexuality. The 1980s was the decade of androgyny, with artists like Annie Lennox, Boy George, and Poison emulating the gender-bending approach of 1970s-era David Bowie. Other performers such as Morrissey and the aforementioned George Michael kept their fans guessing about their sexual orientation. Jimmy Somerville, however, already answered the "is he or isn't he" question before anyone had a chance to ask, and he did so without a trace of mascara. Jimmy Somerville's career began as a member and co-founder of the dance-pop group Bronski Beat, and the here-goes-nothing frankness of the group's debut single, "Smalltown Boy," became an instant sensation, reaching the British Top Ten and becoming an MTV staple in America. The homosexual overtones of Bronski Beat's debut album, The Age of Consent, didn't stop it from becoming a major seller, and the follow-up single, "Why?," also secured a place in the upper reaches of the British pop chart and became an American danceclub favorite. After this initial success, however, Jimmy Somerville departed the group, forming the Communards in 1985 with keyboardist Richard Coles. The Communards' sound was basically a variation of Bronski Beat's disco-influenced dance-pop, and the duo recorded two albums (1986's Communards and 1987's Red) before disbanding, after which Somerville embarked on a sporadic solo career. His lyrical approach detailing the feelings of homosexual alienation are evident in several tracks, particularly the classic "Smalltown Boy" and the Communards' self-explanatory "There's More to Love Than Boy Meets Girl." Somerville can be a remarkably intelligent songwriter, but often his talent is wasted with misguided cover tunes. His faux reggae version of the Bee Gees' "To Love Somebody" is a bore, as is his watered-down Sylvester remake, "You Make Me Feel (Mighty Real)." His rendition of "Comment Te Dire Adieu" is the worst by far, as his campy take on the Serge Gainsbourg classic (previously recorded by Françoise Hardy) can provoke uncontrollable snickering. "Don't Leave Me This Way" and the similarly arranged "Never Can Say Goodbye" (both recorded by the Communards) are the best of the covers, updating the exuberance of the Thelma Houston and Gloria Gaynor disco classics while showcasing Somerville's amazing vocal range. Bronski Beat's pulsating version of Donna Summer's "I Feel Love" (featuring Soft Cell vocalist Marc Almond) is also effective. Despite Jimmy Somerville's popularity as a member of two different groups, his lackluster 1989 solo release, Read My Lips, failed to match the success of the Communards or Bronski Beat. In 1990 London Records released the Singles Collection,, which featured the same seventeen tracks as the Very Best of Jimmy Somerville: Bronski Beat and the Communards, only in a different order.

~ William Cooper, All Music

***************

Jimmy Somerville - The Very Best Of Jimmy Somerville, Bronski Beat And The Communards (2001) Repost

Track List:

01. Bronski Beat - Smalltown Boy [5:01]
02. The Communards - Don't Leave Me This Way [4:33]
03. Bronski Beat - Why? [3:58]
04. Jimmy Somerville - You Make Me Feel (Mighty Real) [3:58]
05. The Communards - Disenchanted [4:11]
06. The Communards - Never Can Say Goodbye [4:28]
07. The Communards - So Cold The Night [4:41]
08. Jimmy Somerville - To Love Somebody [4:17]
09. The Communards - There's More To Love (Than Boy Meets Girl) [3:51]
10. Jimmy Somerville with June Miles Kingston - Comment Te Dire Adieu [3:38]
11. The Communards - You Are My World [4:31]
12. Bronski Beat & Marc Almond - I Feel Love / Johnny Remember Me [5:48]
13. The Communards - Tomorrow [4:49]
14. Jimmy Somerville - Hurt So Good [3:52]
15. Jimmy Somerville - Read My Lips (Enough Is Enough) [4:49]
16. The Communards - For A Friend [4:38]
17. Bronski Beat - Ain't Necessarily So [4:06]

Exact Audio Copy V0.99 prebeta 5 from 4. May 2009

Отчёт EAC об извлечении, выполненном 4. декабря 2010, 17:34

Jimmy Somerville / The Very Best Of Jimmy Somerville, Bronski Beat And The Communards

Дисковод: PLEXTOR DVDR PX-760A Adapter: 3 ID: 1

Режим чтения : Достоверность
Использование точного потока : Да
Отключение кэша аудио : Да
Использование указателей C2 : Нет

Коррекция смещения при чтении : 30
Способность читать области Lead-in и Lead-out : Да
Заполнение пропущенных сэмплов тишиной : Да
Удаление блоков с тишиной в начале и конце : Нет
При вычислениях CRC использовались нулевые сэмплы : Да
Интерфейс : Установленный внешний ASPI-интерфейс

Выходной формат : Monkey's Audio Lossless Encoder v3.99 DLL
Формат сэмплов : Normal Lossless Compression


TOC извлечённого CD

Трек | Старт | Длительность | Начальный сектор | Конечный сектор
––––––––––––––––––––––––––––––––––-
1 | 0:00.00 | 5:00.67 | 0 | 22566
2 | 5:00.67 | 4:32.58 | 22567 | 43024
3 | 9:33.50 | 3:58.00 | 43025 | 60874
4 | 13:31.50 | 3:57.67 | 60875 | 78716
5 | 17:29.42 | 4:11.03 | 78717 | 97544
6 | 21:40.45 | 4:27.70 | 97545 | 117639
7 | 26:08.40 | 4:41.30 | 117640 | 138744
8 | 30:49.70 | 4:16.47 | 138745 | 157991
9 | 35:06.42 | 3:50.73 | 157992 | 175314
10 | 38:57.40 | 3:37.42 | 175315 | 191631
11 | 42:35.07 | 4:30.73 | 191632 | 211954
12 | 47:06.05 | 5:48.00 | 211955 | 238054
13 | 52:54.05 | 4:48.70 | 238055 | 259724
14 | 57:43.00 | 3:52.05 | 259725 | 277129
15 | 61:35.05 | 4:48.52 | 277130 | 298781
16 | 66:23.57 | 4:37.53 | 298782 | 319609
17 | 71:01.35 | 4:06.30 | 319610 | 338089


Характеристики диапазона извлечения и сообщения об ошибках

Выбранный диапазон

Имя файла C:\Jimmy Sumerville\Jimmy Somerville - The Very Best Of Jimmy Somerville, Bronski Beat And The Communards.ape

Пиковый уровень 98.6 %
Качество диапазона 100.0 %
CRC копии 33AC11D6
Копирование… OK

Ошибок не произошло

Конец отчёта

[CUETools log; Date: 15.10.2019 11:18:24; Version: 2.1.6]
[CTDB TOCID: I1xemnLlFqyF.Hc.oVEGE91eZbI-] found.
Track | CTDB Status
1 | (118/122) Accurately ripped
2 | (121/122) Accurately ripped
3 | (122/122) Accurately ripped
4 | (122/122) Accurately ripped
5 | (121/122) Accurately ripped
6 | (122/122) Accurately ripped
7 | (122/122) Accurately ripped
8 | (122/122) Accurately ripped
9 | (121/122) Accurately ripped
10 | (122/122) Accurately ripped
11 | (121/122) Accurately ripped
12 | (122/122) Accurately ripped
13 | (121/122) Accurately ripped
14 | (121/122) Accurately ripped
15 | (122/122) Accurately ripped
16 | (122/122) Accurately ripped
17 | (121/122) Accurately ripped
[AccurateRip ID: 002e31c8-02491484-f4119b11] found.
Track [ CRC | V2 ] Status
01 [902289a6|4d4fc6b5] (00+00/73) No match
02 [57f89c3b|88025f37] (00+00/73) No match
03 [f5aca468|f02aed01] (00+00/74) No match
04 [7bd52c7c|35c00ae0] (00+00/74) No match
05 [ecbf8f42|9a0d73d4] (00+00/74) No match
06 [f62e0a2e|51ea92e2] (00+00/74) No match
07 [f5b975d3|5f8b0996] (00+00/74) No match
08 [561dde39|efcf26af] (00+00/74) No match
09 [17e6d66b|3e54b982] (00+00/74) No match
10 [577228fb|21d95079] (00+00/74) No match
11 [26fb745a|c58119c4] (00+00/74) No match
12 [f88a6710|a2312d23] (00+00/74) No match
13 [06d516fa|f80edfe8] (00+00/74) No match
14 [5716c5f0|ce992e4a] (00+00/73) No match
15 [b602bf67|e54f758e] (00+00/74) No match
16 [5e7cf28e|24742da7] (00+00/73) No match
17 [b4636419|db86cdc3] (00+00/75) No match
Offsetted by 664:
01 [ff3b6ade] (37/73) Accurately ripped
02 [e91c5dd3] (37/73) Accurately ripped
03 [0a97c288] (37/74) Accurately ripped
04 [0257339c] (37/74) Accurately ripped
05 [f3476a82] (37/74) Accurately ripped
06 [e28de776] (37/74) Accurately ripped
07 [e5fb9bc3] (37/74) Accurately ripped
08 [0bde51c9] (37/74) Accurately ripped
09 [f70b905b] (37/74) Accurately ripped
10 [b5aabae3] (37/74) Accurately ripped
11 [f9e4653a] (37/74) Accurately ripped
12 [b76ce828] (37/74) Accurately ripped
13 [5fd98152] (37/74) Accurately ripped
14 [1e70c958] (36/73) Accurately ripped
15 [f1960d1f] (37/74) Accurately ripped
16 [198bd22e] (36/73) Accurately ripped
17 [ae2dea79] (38/75) Accurately ripped

Track Peak [ CRC32 ] [W/O NULL] [ LOG ]
– 98,6 [33AC11D6] [5B4D9FB2] CRC32
01 98,6 [5EA52E2B] [465D6B58]
02 98,6 [CDAEB842] [BE94B3D6]
03 98,6 [CD1DF03B] [98C6A6AF]
04 98,6 [53B5C114] [05144A54]
05 98,6 [06D6CCEC] [3D957C48]
06 98,6 [E91F2FF1] [68C3FBBE]
07 96,4 [7BF5445F] [ED908F76]
08 98,6 [8CAD5D72] [675D4F90]
09 97,5 [37AFA339] [77C23AB3]
10 98,6 [2A91851D] [337140EC]
11 98,6 [92774327] [012F711A]
12 98,6 [6A596014] [5B7E482D]
13 98,6 [4125403D] [A2C57471]
14 97,4 [438046DE] [21EFD896]
15 98,6 [0CBBB955] [65413038]
16 98,6 [090AED09] [EC7DC1A9]
17 96,3 [CA5A7CFF] [C31AACCD]

Jimmy Somerville - The Very Best Of Jimmy Somerville, Bronski Beat And The Communards (2001) Repost


See also:

Jimmy Somerville - Read My Lips (1989)

All thanks go to svk_1957

>>> My Blog <<<

DOWNLOAD: