Subcategories

Jean Michel Jarre - The Concerts In China (1982) {1997 24-bit Remaster + 2014 Remaster}

Posted By: popsakov
Jean Michel Jarre - The Concerts In China (1982) {1997 24-bit Remaster + 2014 Remaster}

Jean Michel Jarre - The Concerts In China (1982) {1997 24-bit Remaster + 2014 Remaster}
3CD | EAC Rip | FLAC (Img) + Cue + Log ~ 1,04 Gb | MP3 CBR320 ~ 397 Mb
Full Scans | RAR 5% Recovery
Electronic, Ambient | Disques Dreyfus / Epic #EPC 488139 2 + Disques Dreyfus / BMG / Sony Music #88843024712

The Concerts in China is a live album by Jean Michel Jarre, recorded in 1981 and released in 1982 on Disques Dreyfus. It was recorded during Jarre's Concerts in China tour of Autumn 1981, which consisted of five Beijing and Shanghai concerts in China; this was the first time a Western pop artist performed in China after the Cultural Revolution.
The album is a balance of previously released tracks by Jarre, new compositions inspired by Chinese culture, and one rearranged traditional Chinese track ("Fishing Junks at Sunset"). The album consists mainly of live material, plus ambient sound recordings and one new studio track "Souvenir of China". Other new compositions recorded live include "Night in Shanghai", "Laser Harp", "Arpegiator" and "Orient Express". "Fishing Junks at Sunset" is a new arrangement of a very old traditional Chinese song known as the "Fisherman's Chant at Dusk", which was performed and recorded with The Peking Conservatoire Symphony Orchestra and is often wrongly attributed as being composed by Jean Michel Jarre, misled by the album inlay.

The album was originally released as a double-disc LP, then as a double-disc CD. In 1997, a one-disc remastered CD was released, made possible by reducing the total running time to 78:17 by reducing the gaps and audience noise between tracks. The remastering was done by Scott Hull at Masterdisk to the 96 kHz, 24 bit standard. One of the album's original tracks – "Arpegiator" – was used in the soundtrack of the film 9½ Weeks as well as in several mid-1980s episodes of the American soap opera Santa Barbara. Opening track "The Overture" is the first movement of "Magnetic Fields Part 1" slowed down. The album reached #6 in the UK charts and #1 in Portugal.

~ Wiki

Jean Michel Jarre - The Concerts In China (1982) {1997 24-bit Remaster + 2014 Remaster}

Jean-Michel Jarre performed a handful of concerts in Peking and Shanghai in 1981, marking the first time that a modern Western musical artist had played in communist China. Sensing the historical importance of the event (and the career milestone it represented), a double album of live music from these concerts was released the following year as Les Concerts en Chine. The release is half musical travelogue (featuring new pieces presumably inspired by China) and half career retrospective, with faithful reproductions of excerpts from Equinoxe and Les Chants Magnetiques (Magnetic Fields) interspersed with new works and snippets of Chinese dialogue. There has always been a strong visual component to Jarre's live shows, which the listener is left out of on these recordings (small pockets of applause during some of the songs allude to the graphic goings-on), but even without the lights and lasers this is engaging stuff. Highlights from the show include "Jonques de Pecheurs au Crepuscule" (Fishing Junks at Sunset), a welcome respite from Jarre's ultra-modern music that features a traditional Oriental arrangement, and new works like "Arpegiateur" and "Nuit a Shangai" that compare favorably with the brisk, streamlined sound of Tangerine Dream in the early ‘80s. Connecting these sections with dialogue and street noises (some of which, in the case of "Les Chants Magnetiques," have always been there) breaks up the concert nicely, although two lighthearted intermissions ("L'Orchestre Sous la Pluie" and "La Derniere Rumba") make too fine a point of it. Owners of Equinoxe and Les Chants Magnetiques expecting to hear a new interpretation of these albums won't find any surprises on Les Concerts en Chine except a short ping-pong match inexplicably billed as "Les Chants Magnetiques I." The real attraction is the new music, and the newness that all of this must have held for its audience.

~ Dave Connolly, All Music

***************

Jean Michel Jarre - The Concerts In China (1982) {1997 24-bit Remaster + 2014 Remaster}

Jean Michel Jarre - The Concerts In China (1982) {1997, 24-bit Remaster}
EAC Rip | FLAC (Img) + Cue + Log ~ 533 Mb | MP3 CBR320 ~ 229 Mb
Full Scans | 01:18:18 | RAR 5% Recovery
Electronic, Ambient | Disques Dreyfus / Epic #EPC 488139 2


***************

Jean Michel Jarre - The Concerts In China (1982) {1997 24-bit Remaster + 2014 Remaster}

Jean Michel Jarre - The Concerts In China (1982) {1997 24-bit Remaster + 2014 Remaster}

Track List:

01. The Overture [04:47]
02. Arpegiator [06:52]
03. Equinoxe IV [07:39]
04. Fishing Junks At Sunset [09:35]
05. Band In The Rain [01:24]
06. Equinoxe VII [09:53]
07. Orient Express [04:22]
08. Magnetic Fields I [00:29]
09. Magnetic Fields III [03:48]
10. Magnetic Fields IV [06:43]
11. Laser Harp [03:27]
12. Night In Shanghai [07:02]
13. The Last Rumba [02:03]
14. Magnetic Fields II [06:20]
15. Souvenir Of China [04:00]

Exact Audio Copy V1.0 beta 1 from 15. November 2010

EAC extraction logfile from 22. January 2011, 17:21

Jean Michel Jarre / The Concerts In China

Used drive : Optiarc DVD RW AD-7173S Adapter: 3 ID: 0

Read mode : Secure
Utilize accurate stream : Yes
Defeat audio cache : Yes
Make use of C2 pointers : No

Read offset correction : 48
Overread into Lead-In and Lead-Out : No
Fill up missing offset samples with silence : Yes
Delete leading and trailing silent blocks : No
Null samples used in CRC calculations : Yes
Used interface : Installed external ASPI interface

Used output format : Internal WAV Routines
Sample format : 44.100 Hz; 16 Bit; Stereo


TOC of the extracted CD

Track | Start | Length | Start sector | End sector
––––––––––––––––––––––––––––-
1 | 0:00.00 | 4:46.62 | 0 | 21511
2 | 4:46.62 | 6:51.38 | 21512 | 52374
3 | 11:38.25 | 7:38.70 | 52375 | 86794
4 | 19:17.20 | 9:34.57 | 86795 | 129901
5 | 28:52.02 | 1:23.38 | 129902 | 136164
6 | 30:15.40 | 9:52.22 | 136165 | 180586
7 | 40:07.62 | 4:21.23 | 180587 | 200184
8 | 44:29.10 | 0:28.30 | 200185 | 202314
9 | 44:57.40 | 3:47.42 | 202315 | 219381
10 | 48:45.07 | 6:42.45 | 219382 | 249576
11 | 55:27.52 | 3:26.35 | 249577 | 265061
12 | 58:54.12 | 7:01.13 | 265062 | 296649
13 | 65:55.25 | 2:02.45 | 296650 | 305844
14 | 67:57.70 | 6:19.22 | 305845 | 334291
15 | 74:17.17 | 4:00.00 | 334292 | 352291


Range status and errors

Selected range

Filename C:\Documents and Settings\Administrator\Desktop\Jean Michel Jarre - The Concerts In China.wav

Peak level 100.0 %
Extraction speed 0.2 X
Range quality 99.9 %
Test CRC BFA60E89
Copy CRC BFA60E89
Copy OK

No errors occurred


AccurateRip summary

Track 1 accurately ripped (confidence 3) [363A90AC]
Track 2 accurately ripped (confidence 3) [91D888B3]
Track 3 accurately ripped (confidence 3) [E73522BB]
Track 4 accurately ripped (confidence 3) [AA70AB39]
Track 5 accurately ripped (confidence 3) [4BCA1B59]
Track 6 accurately ripped (confidence 3) [8EAB2D1F]
Track 7 accurately ripped (confidence 3) [0C650E1C]
Track 8 accurately ripped (confidence 3) [40086E64]
Track 9 accurately ripped (confidence 3) [D93114AB]
Track 10 accurately ripped (confidence 2) [55BB1055]
Track 11 accurately ripped (confidence 3) [8B2DDB0B]
Track 12 accurately ripped (confidence 3) [57E3E9E8]
Track 13 accurately ripped (confidence 3) [EF84C396]
Track 14 accurately ripped (confidence 2) [F5039809]
Track 15 accurately ripped (confidence 2) [0F2C5B1B]

All tracks accurately ripped

End of status report

[CUETools log; Date: 21.08.2016 0:19:20; Version: 2.1.5]
[CTDB TOCID: JeMJwXX9luslUJNJwIZJGQjyzn4-] found.
Track | CTDB Status
1 | (161/234) Accurately ripped
2 | (163/234) Accurately ripped
3 | (162/234) Accurately ripped
4 | (160/234) Accurately ripped
5 | (163/234) Accurately ripped
6 | (162/234) Accurately ripped
7 | (163/234) Accurately ripped
8 | (163/234) Accurately ripped
9 | (162/234) Accurately ripped
10 | (161/234) Accurately ripped
11 | (162/234) Accurately ripped
12 | (162/234) Accurately ripped
13 | (163/234) Accurately ripped
14 | (160/234) Accurately ripped
15 | (160/234) Accurately ripped
[AccurateRip ID: 002e4768-0200d719-fc12590f] found.
Track [ CRC | V2 ] Status
01 [363a90ac|353559d8] (064+081/331) Accurately ripped
02 [91d888b3|28fe865e] (064+082/331) Accurately ripped
03 [e73522bb|9bdcc3f9] (065+082/330) Accurately ripped
04 [aa70ab39|eba115cb] (065+082/330) Accurately ripped
05 [4bca1b59|c71f5978] (066+082/332) Accurately ripped
06 [8eab2d1f|3f070538] (065+079/326) Accurately ripped
07 [0c650e1c|6031f413] (065+080/329) Accurately ripped
08 [40086e64|35d3cdb2] (065+081/329) Accurately ripped
09 [d93114ab|06245baa] (064+080/325) Accurately ripped
10 [55bb1055|36de543b] (064+079/326) Accurately ripped
11 [8b2ddb0b|8afe45a0] (064+079/326) Accurately ripped
12 [57e3e9e8|b44e509f] (063+079/327) Accurately ripped
13 [ef84c396|b195960f] (064+080/328) Accurately ripped
14 [f5039809|95fe7b5f] (064+077/321) Accurately ripped
15 [0f2c5b1b|e3995912] (058+080/316) Accurately ripped
Offsetted by 659:
01 [0fab4d62] (014/331) Accurately ripped
02 [e972dedb] (014/331) Accurately ripped
03 [b27bb91a] (014/330) Accurately ripped
04 [4cb542a9] (014/330) Accurately ripped
05 [e35de32d] (014/332) Accurately ripped
06 [50b18cdb] (013/326) Accurately ripped
07 [faf24dcb] (013/329) Accurately ripped
08 [1ddea0a1] (013/329) Accurately ripped
09 [503586c5] (013/325) Accurately ripped
10 [7088de0f] (013/326) Accurately ripped
11 [f5d35c25] (013/326) Accurately ripped
12 [e9dac959] (013/327) Accurately ripped
13 [6ca21c90] (013/328) Accurately ripped
14 [b5fe16d8] (013/321) Accurately ripped
15 [9fee8e63] (013/316) Accurately ripped
Offsetted by 932:
01 [4594b991] (033/331) Accurately ripped
02 [4e0a5072] (033/331) Accurately ripped
03 [30b6386f] (034/330) Accurately ripped
04 [a281c95c] (034/330) Accurately ripped
05 [e7b5bdcd] (033/332) Accurately ripped
06 [5f402582] (033/326) Accurately ripped
07 [933a879c] (034/329) Accurately ripped
08 [8529a6fc] (033/329) Accurately ripped
09 [4c1bf2c4] (032/325) Accurately ripped
10 [44bffe1e] (034/326) Accurately ripped
11 [80e370e1] (034/326) Accurately ripped
12 [d74cd130] (034/327) Accurately ripped
13 [9297814b] (034/328) Accurately ripped
14 [7c844327] (033/321) Accurately ripped
15 [76e59fa6] (034/316) Accurately ripped
Offsetted by -676:
01 [3a1bfe02] (000/331) No match (V2 was not tested)
02 [5ce31ac6] (000/331) No match (V2 was not tested)
03 [97885a32] (000/330) No match (V2 was not tested)
04 [22674408] (000/330) No match (V2 was not tested)
05 [c63bf1ce] (000/332) No match (V2 was not tested)
06 [f3af4847] (000/326) No match (V2 was not tested)
07 [d484c212] (000/329) No match (V2 was not tested)
08 [3a499a90] (000/329) No match (V2 was not tested)
09 [83d7d0cf] (000/325) No match (V2 was not tested)
10 [beba662d] (000/326) No match (V2 was not tested)
11 [3765abf0] (000/326) No match (V2 was not tested)
12 [f51a9149] (000/327) No match (V2 was not tested)
13 [82ced03c] (000/328) No match (V2 was not tested)
14 [93d5d0fe] (000/321) No match (V2 was not tested)
15 [381c5751] (000/316) No match (V2 was not tested)

Track Peak [ CRC32 ] [W/O NULL] [ LOG ]
– 99,9 [BFA60E89] [48979A77] CRC32
01 99,0 [5A6ECE4A] [2DDAAA69]
02 99,9 [DC6A225A] [7FB97195]
03 99,9 [25F1F201] [C89D5659]
04 94,1 [7EE7A91B] [7978E4B2]
05 56,5 [08C61224] [A7C24025]
06 99,9 [CA4AF47E] [4C2F8280]
07 99,9 [7642F9C0] [5256F43C]
08 51,3 [0D62A37A] [D53A4394]
09 43,2 [00D4C5A1] [DCCEBC29]
10 99,9 [4ADEEF00] [5960AEBB]
11 59,0 [93D13025] [2CFD97F7]
12 99,9 [BFE19348] [A1852BEC]
13 57,8 [07DE3B18] [2A9C2D67]
14 99,9 [A19ABFC0] [6EF91A0B]
15 99,9 [68097D18] [D02C7B14]

Jean Michel Jarre - The Concerts In China (1982) {1997 24-bit Remaster + 2014 Remaster}


***************

Jean Michel Jarre - The Concerts In China (1982) {1997 24-bit Remaster + 2014 Remaster}

Jean Michel Jarre - The Concerts In China (1982) {2014, Remaster}
2CD | EAC Rip | FLAC (Img) + Cue + Log ~ 581 Mb | MP3 CBR320 ~ 209 Mb
Full Scans | 00:40:31 + 00:38:27 | RAR 5% Recovery
Electronic, Ambient | Disques Dreyfus / BMG / Sony Music #88843024712


***************

Jean Michel Jarre - The Concerts In China (1982) {1997 24-bit Remaster + 2014 Remaster}

Jean Michel Jarre - The Concerts In China (1982) {1997 24-bit Remaster + 2014 Remaster}

Track List CD1:

01. The Overture [04:52]
02. Arpegiator [06:51]
03. Equinoxe Part 4 [07:48]
04. Fishing Junks At Sunset [09:46]
05. Band In The Rain [01:22]
06. Equinoxe Part 7 [09:55]

Exact Audio Copy V0.99 prebeta 5 from 4. May 2009

EAC extraction logfile from 2. August 2014, 10:33

Jean Michel Jarre / The Concerts In China (CD 1)

Used drive : hp CDDVDW SH-216BB Adapter: 0 ID: 0

Read mode : Secure
Utilize accurate stream : Yes
Defeat audio cache : Yes
Make use of C2 pointers : No

Read offset correction : 6
Overread into Lead-In and Lead-Out : No
Fill up missing offset samples with silence : Yes
Delete leading and trailing silent blocks : No
Null samples used in CRC calculations : Yes
Used interface : Native Win32 interface for Win NT & 2000

Used output format : Internal WAV Routines
Sample format : 44.100 Hz; 16 Bit; Stereo


TOC of the extracted CD

Track | Start | Length | Start sector | End sector
––––––––––––––––––––––––––––-
1 | 0:00.00 | 4:51.44 | 0 | 21868
2 | 4:51.44 | 6:50.35 | 21869 | 52653
3 | 11:42.04 | 7:47.38 | 52654 | 87716
4 | 19:29.42 | 9:45.73 | 87717 | 131664
5 | 29:15.40 | 1:21.10 | 131665 | 137749
6 | 30:36.50 | 9:54.16 | 137750 | 182315


Range status and errors

Selected range

Filename C:\Users\Arthur\Desktop\Jean Michel Jarre - The Concerts In China (CD 1).wav

Peak level 99.3 %
Range quality 100.0 %
Test CRC 139A3CA9
Copy CRC 139A3CA9
Copy OK

No errors occurred


AccurateRip summary

Track 1 cannot be verified as accurate (confidence 2) [C6392340], AccurateRip returned [C49FF0F9]
Track 2 cannot be verified as accurate (confidence 2) [8A39A701], AccurateRip returned [412CCB87]
Track 3 cannot be verified as accurate (confidence 2) [0D023D77], AccurateRip returned [FD71ABD3]
Track 4 cannot be verified as accurate (confidence 2) [7C90A83F], AccurateRip returned [A24FC80B]
Track 5 cannot be verified as accurate (confidence 2) [1C19219C], AccurateRip returned [F0B544B2]
Track 6 cannot be verified as accurate (confidence 2) [D5D702C6], AccurateRip returned [39B05101]

No tracks could be verified as accurate
You may have a different pressing from the one(s) in the database

End of status report

[CUETools log; Date: 21.08.2016 0:14:45; Version: 2.1.5]
[CTDB TOCID: ES1LS89wBmUMKOkKgSZxCr3DLMo-] found.
Track | CTDB Status
1 | (86/86) Accurately ripped
2 | (86/86) Accurately ripped
3 | (86/86) Accurately ripped
4 | (86/86) Accurately ripped
5 | (86/86) Accurately ripped
6 | (85/86) Accurately ripped
[AccurateRip ID: 00095e53-00328fc6-4d097e06] found.
Track [ CRC | V2 ] Status
01 [c6392340|c49ff0f9] (00+23/23) Accurately ripped
02 [8a39a701|412ccb87] (00+23/23) Accurately ripped
03 [0d023d77|fd71abd3] (00+23/23) Accurately ripped
04 [7c90a83f|a24fc80b] (00+23/23) Accurately ripped
05 [1c19219c|f0b544b2] (00+23/23) Accurately ripped
06 [d5d702c6|39b05101] (00+23/23) Accurately ripped

Track Peak [ CRC32 ] [W/O NULL] [ LOG ]
– 99,3 [139A3CA9] [25901FE4] CRC32
01 99,3 [1E0C9048] [5B3697C5]
02 99,3 [6DF5501D] [B87AFCCF]
03 99,3 [FCC53261] [283D45B3]
04 99,3 [CEC022CB] [36344C13]
05 99,3 [7DC7DF68] [84753BA9]
06 99,3 [9F825A1E] [0117D2C3]

Jean Michel Jarre - The Concerts In China (1982) {1997 24-bit Remaster + 2014 Remaster}

Jean Michel Jarre - The Concerts In China (1982) {1997 24-bit Remaster + 2014 Remaster}

Track List CD2:

01. Orient Express [04:23]
02. Magnetic Fields Part 1 [00:28]
03. Magnetic Fields Part 3 [03:45]
04. Magnetic Fields Part 4 [06:46]
05. Laser Harp [03:36]
06. Night In Shanghai [07:02]
07. The Last Rumba [02:12]
08. Magnetic Fields Part 2 [06:19]
09. Souvenir Of China [04:00]

Exact Audio Copy V0.99 prebeta 5 from 4. May 2009

EAC extraction logfile from 2. August 2014, 11:04

Jean Michel Jarre / The Concerts In China (CD 2)

Used drive : hp CDDVDW SH-216BB Adapter: 0 ID: 0

Read mode : Secure
Utilize accurate stream : Yes
Defeat audio cache : Yes
Make use of C2 pointers : No

Read offset correction : 6
Overread into Lead-In and Lead-Out : No
Fill up missing offset samples with silence : Yes
Delete leading and trailing silent blocks : No
Null samples used in CRC calculations : Yes
Used interface : Native Win32 interface for Win NT & 2000

Used output format : Internal WAV Routines
Sample format : 44.100 Hz; 16 Bit; Stereo


TOC of the extracted CD

Track | Start | Length | Start sector | End sector
––––––––––––––––––––––––––––-
1 | 0:00.00 | 4:22.25 | 0 | 19674
2 | 4:22.25 | 0:27.73 | 19675 | 21772
3 | 4:50.23 | 3:44.42 | 21773 | 38614
4 | 8:34.65 | 6:45.42 | 38615 | 69031
5 | 15:20.32 | 3:35.23 | 69032 | 85179
6 | 18:55.55 | 7:01.39 | 85180 | 116793
7 | 25:57.19 | 2:11.09 | 116794 | 126627
8 | 28:08.28 | 6:18.55 | 126628 | 155032
9 | 34:27.08 | 3:59.22 | 155033 | 172979


Range status and errors

Selected range

Filename C:\Users\Arthur\Desktop\Jean Michel Jarre - The Concerts In China (CD 2).wav

Peak level 99.3 %
Range quality 100.0 %
Test CRC 807E48BD
Copy CRC 807E48BD
Copy OK

No errors occurred


AccurateRip summary

Track 1 cannot be verified as accurate (confidence 2) [4750A0B6], AccurateRip returned [2032D18B]
Track 2 cannot be verified as accurate (confidence 2) [BED73554], AccurateRip returned [132EF2C7]
Track 3 cannot be verified as accurate (confidence 2) [05DEF696], AccurateRip returned [3CCDF808]
Track 4 cannot be verified as accurate (confidence 2) [61D239A9], AccurateRip returned [5B2E48E0]
Track 5 cannot be verified as accurate (confidence 2) [D7189164], AccurateRip returned [EEC66B3D]
Track 6 cannot be verified as accurate (confidence 2) [DD10BC6C], AccurateRip returned [665E7225]
Track 7 cannot be verified as accurate (confidence 2) [8F05666E], AccurateRip returned [9A48EDB5]
Track 8 cannot be verified as accurate (confidence 2) [355F49DE], AccurateRip returned [2B5880FB]
Track 9 cannot be verified as accurate (confidence 2) [573EBE4C], AccurateRip returned [65235CA3]

No tracks could be verified as accurate
You may have a different pressing from the one(s) in the database

End of status report

[CUETools log; Date: 21.08.2016 0:17:18; Version: 2.1.5]
[CTDB TOCID: 0mrr7Rtzrz4xuhuvXcETNkIpBn0-] found.
Track | CTDB Status
1 | (83/83) Accurately ripped
2 | (83/83) Accurately ripped
3 | (83/83) Accurately ripped
4 | (83/83) Accurately ripped
5 | (83/83) Accurately ripped
6 | (83/83) Accurately ripped
7 | (83/83) Accurately ripped
8 | (83/83) Accurately ripped
9 | (81/83) Accurately ripped
[AccurateRip ID: 000c4b4e-005ca309-75090209] found.
Track [ CRC | V2 ] Status
01 [4750a0b6|2032d18b] (00+23/23) Accurately ripped
02 [bed73554|132ef2c7] (00+22/22) Accurately ripped
03 [05def696|3ccdf808] (00+22/22) Accurately ripped
04 [61d239a9|5b2e48e0] (00+22/22) Accurately ripped
05 [d7189164|eec66b3d] (00+22/22) Accurately ripped
06 [dd10bc6c|665e7225] (00+22/22) Accurately ripped
07 [8f05666e|9a48edb5] (00+22/22) Accurately ripped
08 [355f49de|2b5880fb] (00+22/22) Accurately ripped
09 [573ebe4c|65235ca3] (00+22/22) Accurately ripped

Track Peak [ CRC32 ] [W/O NULL] [ LOG ]
– 99,3 [807E48BD] [4035E000] CRC32
01 99,3 [372CAE26] [0B4BBC85]
02 99,2 [26DA4EDF] [A807DD49]
03 99,2 [5233463F] [0BCB34BF]
04 99,3 [FE45703E] [A29EEBCE]
05 99,3 [E4E9695E] [2D170466]
06 99,3 [8192463F] [5A3AC20D]
07 99,3 [2E3A662A] [943CE18D]
08 99,3 [D735CA6F] [8ABF59FD]
09 99,3 [E82B4AF3] [4B9E4B58]

Jean Michel Jarre - The Concerts In China (1982) {1997 24-bit Remaster + 2014 Remaster}


All thanks go to Aazimus & London

>>> Jean Michel Jarre in my Blog <<<

DOWNLOAD: