Tags
Language
Tags
February 2024
Su Mo Tu We Th Fr Sa
28 29 30 31 1 2 3
4 5 6 7 8 9 10
11 12 13 14 15 16 17
18 19 20 21 22 23 24
25 26 27 28 29 1 2
Attention❗ To save your time, in order to download anything on this site, you must be registered 👉 HERE. If you do not have a registration yet, it is better to do it right away. ✌

( • )( • ) ( ͡⚆ ͜ʖ ͡⚆ ) (‿ˠ‿)
SpicyMags.xyz

Jacintha - Here's To Ben: A Vocal Tribute To Ben Webster (1998) {2005, Japanese XRCD, Remastered} Repost / New Rip

Posted By: popsakov
Jacintha - Here's To Ben: A Vocal Tribute To Ben Webster (1998) {2005, Japanese XRCD, Remastered} Repost / New Rip

Jacintha - Here's To Ben: A Vocal Tribute To Ben Webster (1998) {2005, Japanese XRCD, Remastered}
EAC Rip | FLAC (Tracks) + Cue + m3u8 + Log ~ 336 Mb | MP3 CBR320 ~ 157 Mb
Full Scans | 00:55:04 | RAR 5% Recovery
First Impression Music / JVC Victor Company Of Japan, Ltd. #FIM XRCD 020
Vocal Jazz / Standards

Jacintha is a Singaporean jazz singer/torch singer and stage actress who has been well-known in parts of the Asia-Pacific region since the '80s and has been increasing her exposure in North America since the late '90s. Jacintha has never been the type of jazz artist who goes out of her way to be abstract, difficult, or complicated; her work has been quite accessible and easy to absorb, drawing on direct or indirect influences that have included Julie London and Shirley Horn as well as Brazilian star Astrud Gilberto. Jacintha has long been fluent in English, which is widely spoken in Singapore and is one of its four official languages along with Malay, Mandarin Chinese (as opposed to Cantonese Chinese), and Tamil. Her visibility in the United States and Canada started to increase in the late '90s, when she began working with producer Ying Tan and started recording for the Los Angeles-based Groove Note label. Jacintha's first Groove Note release, Here's to Ben: A Vocal Tribute to Ben Webster, was recorded in 1999 – and that album marked the first time that a Jacintha album was widely distributed in North America.

~ Alex Henderson, All Music

***************

Track List:

01. Georgia On My Mind [5:20]
02. The Look Of Love [4:10]
03. Danny Boy [7:27]
04. Somewhere Over The Rainbow [9:44]
05. Stardust [6:42]
06. In The Wee Small Hours Of Morning [4:16]
07. Tenderly [5:26]
08. Our Love Is Here To Stay [3:21]
09. How Long Has This Been Going On? [5:29]
10. Pennies From Heaven [3:13]

Exact Audio Copy V1.3 from 2. September 2016

EAC extraction logfile from 30. July 2019, 20:33

Jacintha / Here's To Ben

Used drive : PLDS DVD+-RW DU-8A5LH Adapter: 1 ID: 0

Read mode : Secure
Utilize accurate stream : Yes
Defeat audio cache : Yes
Make use of C2 pointers : No

Read offset correction : 6
Overread into Lead-In and Lead-Out : No
Fill up missing offset samples with silence : Yes
Delete leading and trailing silent blocks : No
Null samples used in CRC calculations : Yes
Used interface : Native Win32 interface for Win NT & 2000
Gap handling : Appended to previous track

Used output format : User Defined Encoder
Selected bitrate : 768 kBit/s
Quality : High
Add ID3 tag : No
Command line compressor : C:\Program Files (x86)\Exact Audio Copy\FLAC\FLAC.EXE
Additional command line options : -6 -V -T "ARTIST=%artist%" -T "TITLE=%title%" -T "ALBUM=%albumtitle%" -T "DATE=%year%" -T "TRACKNUMBER=%tracknr%" -T "GENRE=%genre%" -T "COMMENT=%comment%" -T "BAND=%albuminterpret%" -T "ALBUMARTIST=%albuminterpret%" -T "COMPOSER=%composer%" %haslyrics%–tag-from-file=LYRICS="%lyricsfile%"%haslyrics% -T "DISCNUMBER=%cdnumber%" -T "TOTALDISCS=%totalcds%" -T "TOTALTRACKS=%numtracks%" %hascover%–picture="%coverfile%"%hascover% %source% -o %dest%


TOC of the extracted CD

Track | Start | Length | Start sector | End sector
––––––––––––––––––––––––––––-
1 | 0:00.00 | 5:22.50 | 0 | 24199
2 | 5:22.50 | 4:12.07 | 24200 | 43106
3 | 9:34.57 | 7:28.24 | 43107 | 76730
4 | 17:03.06 | 9:46.60 | 76731 | 120740
5 | 26:49.66 | 6:44.45 | 120741 | 151085
6 | 33:34.36 | 4:17.67 | 151086 | 170427
7 | 37:52.28 | 5:28.35 | 170428 | 195062
8 | 43:20.63 | 3:23.10 | 195063 | 210297
9 | 46:43.73 | 5:32.14 | 210298 | 235211
10 | 52:16.12 | 3:12.45 | 235212 | 249656


Track 1

Filename H:\(Aion)\Jacintha - Here's to Ben (1998) [FLAC]\01 - Georgia On My Mind.wav

Pre-gap length 0:00:02.00

Peak level 100.0 %
Extraction speed 2.8 X
Track quality 99.9 %
Test CRC 61A78C82
Copy CRC 61A78C82
Track not present in AccurateRip database
Copy OK

Track 2

Filename H:\(Aion)\Jacintha - Here's to Ben (1998) [FLAC]\02 - The Look Of Love.wav

Pre-gap length 0:00:03.09

Peak level 100.0 %
Extraction speed 3.4 X
Track quality 100.0 %
Test CRC 2AB2451F
Copy CRC 2AB2451F
Track not present in AccurateRip database
Copy OK

Track 3

Filename H:\(Aion)\Jacintha - Here's to Ben (1998) [FLAC]\03 - Danny Boy.wav

Pre-gap length 0:00:02.70

Peak level 100.0 %
Extraction speed 4.0 X
Track quality 100.0 %
Test CRC ED6C8B1A
Copy CRC ED6C8B1A
Track not present in AccurateRip database
Copy OK

Track 4

Filename H:\(Aion)\Jacintha - Here's to Ben (1998) [FLAC]\04 - Somewhere Over The Rainbow.wav

Pre-gap length 0:00:02.09

Peak level 99.7 %
Extraction speed 4.5 X
Track quality 100.0 %
Test CRC 9220ED73
Copy CRC 9220ED73
Track not present in AccurateRip database
Copy OK

Track 5

Filename H:\(Aion)\Jacintha - Here's to Ben (1998) [FLAC]\05 - Stardust.wav

Pre-gap length 0:00:02.89

Peak level 100.0 %
Extraction speed 4.8 X
Track quality 100.0 %
Test CRC 1DF9D2AD
Copy CRC 1DF9D2AD
Track not present in AccurateRip database
Copy OK

Track 6

Filename H:\(Aion)\Jacintha - Here's to Ben (1998) [FLAC]\06 - In The Wee Small Hours Of Morning.wav

Pre-gap length 0:00:03.21

Peak level 100.0 %
Extraction speed 4.8 X
Track quality 100.0 %
Test CRC E152C5CA
Copy CRC E152C5CA
Track not present in AccurateRip database
Copy OK

Track 7

Filename H:\(Aion)\Jacintha - Here's to Ben (1998) [FLAC]\07 - Tenderly.wav

Pre-gap length 0:00:02.20

Peak level 94.6 %
Extraction speed 5.1 X
Track quality 100.0 %
Test CRC 422156B9
Copy CRC 422156B9
Track not present in AccurateRip database
Copy OK

Track 8

Filename H:\(Aion)\Jacintha - Here's to Ben (1998) [FLAC]\08 - Our Love Is Here To Stay.wav

Pre-gap length 0:00:02.49

Peak level 100.0 %
Extraction speed 5.0 X
Track quality 100.0 %
Test CRC 5E11C683
Copy CRC 5E11C683
Track not present in AccurateRip database
Copy OK

Track 9

Filename H:\(Aion)\Jacintha - Here's to Ben (1998) [FLAC]\09 - How Long Has This Been Going On.wav

Pre-gap length 0:00:02.80

Peak level 92.4 %
Extraction speed 5.5 X
Track quality 100.0 %
Test CRC D61AF2A2
Copy CRC D61AF2A2
Track not present in AccurateRip database
Copy OK

Track 10

Filename H:\(Aion)\Jacintha - Here's to Ben (1998) [FLAC]\10 - Pennies From Heaven.wav

Pre-gap length 0:00:03.49

Peak level 100.0 %
Extraction speed 5.3 X
Track quality 100.0 %
Test CRC E587407C
Copy CRC E587407C
Track not present in AccurateRip database
Copy OK


None of the tracks are present in the AccurateRip database

No errors occurred

End of status report

==== Log checksum 01DC608C2D685EEFEBC484302A6F5D49332205480E2C6883ECAE92524C0BE538 ====

Jacintha - Here's To Ben: A Vocal Tribute To Ben Webster (1998) {2005, Japanese XRCD, Remastered} Repost / New Rip


All thanks go to the original ripper(s) …

>>> My Blog <<<

DOWNLOAD: