Subcategories
Tags
Language
Tags

Greenslade - Bedside Manners Are Extra (1973) {Reissue}

Posted By: popsakov
Greenslade - Bedside Manners Are Extra (1973) {Reissue}

Greenslade - Bedside Manners Are Extra (1973) {Reissue}
EAC Rip | FLAC (Img) + Cue + Log ~ 237 Mb | MP3 CBR320 ~ 108 Mb
Scans Included (JPG, 300 dpi)| RAR 5% Recovery
Progressive Rock | Warner Bros. Records #7599-26866-2

Aside from a few minor differences, 1973's Bedside Manners Are Extra is equivalent to Greenslade's debut album, inundated with the same dazzling synthesizer work and atmospheric guitar implementations from Tony Reeves. Andrew McCulloch's drumming is a little more effective the whole album through, balancing out Dave Greenslade's keyboards and Dave Lawson's singing. The songs alternate from vocal to instrumental, beginning with the beautifully lush title track that exploits the ease in which Greenslade applies his techniques. "Pilgrims Progress" picks up the pace, with McCulloch and Greenslade wonderfully playing off one another. The eight and a half minutes of "Drum Folk" really opens things up, with the synthesizer switching to different tempos and brilliancies while McCulloch gets some well-deserved solo time. "Sunkissed You're Not" is the best display of Dave Lawson's vocals of the three, taking on a jazzy feel during the more fervent portions of the song. While the three lyrical tracks might not be as fantastical as Roger Dean's album cover may lead one to believe, the music that surrounds them certainly is, while the instrumentals exhibit a wide range of genres, from jazz fusion to hints of blues to progressive rock. Bedside Manners has Greenslade showing off their musical range to a greater extent than on their first album, but the band's progressive mien is just as sound.
~ Mike DeGagne, All Music
Greenslade - Bedside Manners Are Extra (1973) {Reissue}


***************

Greenslade - Bedside Manners Are Extra (1973) {Reissue}

Greenslade - Bedside Manners Are Extra (1973) {Reissue}

Track List:

01. Bedside Manners Are Extra [6:24]
02. Pilgrims Progress [7:05]
03. Time To Dream [4:51]
04. Drum Folk [8:54]
05. Sunkissed You're Not [6:36]
06. Chalkhill [5:28]

Personnel:
Dave Greenslade - keyboards
Dave Lawson - keyboards, vocals
Tony Reeves - bass guitar
Andrew McCulloch - drums

Exact Audio Copy V1.0 beta 3 from 29. August 2011

EAC extraction logfile from 12. April 2018, 21:16

Greenslade / Bedside Manners Are Extra

Used drive : PLEXTOR DVDR PX-740A Adapter: 0 ID: 0

Read mode : Secure
Utilize accurate stream : Yes
Defeat audio cache : Yes
Make use of C2 pointers : No

Read offset correction : 618
Overread into Lead-In and Lead-Out : No
Fill up missing offset samples with silence : Yes
Delete leading and trailing silent blocks : No
Null samples used in CRC calculations : Yes
Used interface : Native Win32 interface for Win NT & 2000

Used output format : Internal WAV Routines
Sample format : 44.100 Hz; 16 Bit; Stereo


TOC of the extracted CD

Track | Start | Length | Start sector | End sector
––––––––––––––––––––––––––––-
1 | 0:00.32 | 6:24.23 | 32 | 28854
2 | 6:24.55 | 7:05.00 | 28855 | 60729
3 | 13:29.55 | 4:51.35 | 60730 | 82589
4 | 18:21.15 | 8:53.42 | 82590 | 122606
5 | 27:14.57 | 6:36.03 | 122607 | 152309
6 | 33:50.60 | 5:27.60 | 152310 | 176894


Range status and errors

Selected range

Filename C:\MUSIC\CD Rips_J\Greenslade Manners\Greenslade - Bedside Manners Are Extra.wav

Peak level 100.0 %
Extraction speed 7.9 X
Range quality 100.0 %
Test CRC 043376F8
Copy CRC 043376F8
Copy OK

No errors occurred


AccurateRip summary

Track 1 accurately ripped (confidence 25) [95CA0CD7] (AR v2)
Track 2 accurately ripped (confidence 25) [B8997A97] (AR v2)
Track 3 accurately ripped (confidence 24) [4EA2F7B1] (AR v2)
Track 4 accurately ripped (confidence 25) [C1CBFD65] (AR v2)
Track 5 accurately ripped (confidence 25) [27FF0D5C] (AR v2)
Track 6 accurately ripped (confidence 25) [74353594] (AR v2)

All tracks accurately ripped

End of status report

==== Log checksum A2A0AF583A11A959719187B60ACF5EB75C0B0A03541BC0F5A59E3050FF2C3571 ====

foobar2000 1.3.16 / Dynamic Range Meter 1.1.1
log date: 2018-04-20 16:28:00

––––––––––––––––––––––––––––––––––––––––
Analyzed: Greenslade / Bedside Manners Are Extra
––––––––––––––––––––––––––––––––––––––––

DR Peak RMS Duration Track
––––––––––––––––––––––––––––––––––––––––
DR13 -0.53 dB -17.28 dB 6:24 01-Bedside Manners Are Extra
DR12 0.00 dB -14.50 dB 7:05 02-Pilgrims Progress
DR11 0.00 dB -12.81 dB 4:51 03-Time To Dream
DR11 -0.23 dB -14.70 dB 8:54 04-Drum Folk
DR12 0.00 dB -14.55 dB 6:36 05-Sunkissed You're Not
DR10 0.00 dB -13.73 dB 5:28 06-Chalkhill
––––––––––––––––––––––––––––––––––––––––

Number of tracks: 6
Official DR value: DR12

Samplerate: 44100 Hz
Channels: 2
Bits per sample: 16
Bitrate: 754 kbps
Codec: FLAC
================================================================================

[CUETools log; Date: 20.04.2018 16:21:13; Version: 2.1.6]
Pregap length 00:00:32.
[CTDB TOCID: eArtK5Ot3nvFzSxX.KKeO7D0ZO4-] found.
Track | CTDB Status
1 | (31/31) Accurately ripped
2 | (31/31) Accurately ripped
3 | (29/31) Accurately ripped
4 | (31/31) Accurately ripped
5 | (31/31) Accurately ripped
6 | (31/31) Accurately ripped
[AccurateRip ID: 00098593-0032e51c-39093606] found.
Track [ CRC | V2 ] Status
01 [6b18ab3e|95ca0cd7] (14+25/71) Accurately ripped
02 [ece8c452|b8997a97] (14+25/71) Accurately ripped
03 [da324aea|4ea2f7b1] (14+24/70) Accurately ripped
04 [fab56474|c1cbfd65] (14+25/71) Accurately ripped
05 [b77f017d|27ff0d5c] (14+25/71) Accurately ripped
06 [8df3e6ca|74353594] (13+25/70) Accurately ripped
Offsetted by -664:
01 [0fe341fe] (08/71) Accurately ripped
02 [b6b6d1d2] (08/71) Accurately ripped
03 [6a7d8eda] (08/70) Accurately ripped
04 [3f3c624c] (08/71) Accurately ripped
05 [579f8f95] (08/71) Accurately ripped
06 [388577aa] (08/70) Accurately ripped
Offsetted by 517:
01 [85011956] (04/71) Accurately ripped
02 [4ac4dc82] (04/71) Accurately ripped
03 [de47e1f8] (04/70) Accurately ripped
04 [0494c497] (04/71) Accurately ripped
05 [56313968] (04/71) Accurately ripped
06 [36410506] (04/70) Accurately ripped

Track Peak [ CRC32 ] [W/O NULL] [ LOG ]
– 100,0 [043376F8] [42EBAEF6] CRC32
01 94,0 [7D34DA6E] [AF34B295]
02 100,0 [EA1D0F58] [4BFF2B8F]
03 100,0 [3D74BAA6] [FC229D10]
04 97,3 [0FC5ACE6] [7A46E270]
05 100,0 [BFBC1144] [1CB666D4]
06 100,0 [0EAB5054] [F4740AF6]

Greenslade - Bedside Manners Are Extra (1973) {Reissue}

See also:
Greenslade - Greenslade (1973) {1992, Reissue}

All thanks go to Juergen

>>> My Blog <<<

Download from icerbox.com: