Tags
Language
Tags

Foreigner - Agent Provocateur (1984)

Posted By: popsakov
Foreigner - Agent Provocateur (1984)

Foreigner - Agent Provocateur (1984)
EAC Rip | FLAC (Img) + Cue + Log ~ 302 Mb | MP3 CBR320 ~ 121 Mb
Scans Included | RAR 5% Recovery
Pop Rock, Classic Rock, Hard Rock | Atlantic #7 81999-2 | US

Agent Provocateur is the fifth studio album by the British-American rock band Foreigner, released on December 7, 1984. The album was the band's first and only number one album in the United Kingdom, and it reached the top 5 in the United States. Although album sales were lower than their previous work in the U.S., it contains the band's biggest hit single, "I Want to Know What Love Is", which is their only #1 single in the UK and the U.S., staying at the top spot for three and two weeks respectively. The follow-up single, "That Was Yesterday", also proved to be a sizeable hit, peaking at #12 in the U.S. The album was certified Platinum in the UK, and triple Platinum in the U.S.

***************

Foreigner - Agent Provocateur (1984)

Foreigner - Agent Provocateur (1984)

Track List:

01. Tooth And Nail [3:54]
02. That Was Yesterday [3:50]
03. I Want To Know What Love Is [5:05]
04. Growing Up The Hard Way [4:14]
05. Reaction To Action [4:00]
06. Stranger In My Own House [5:04]
07. A Love In Vain [4:30]
08. Down On Love [4:11]
09. Two Different Worlds [4:31]
10. She's Too Tough [3:09]

Personnel:
Lou Gramm - lead vocals, percussion
Mick Jones - guitar, backing vocals, keyboards
Rick Wills - bass, backing vocals
Dennis Elliott - drums

Additional personnel:
Wally Badarou - analog and digital synthesizers
Tom Bailey - vocals on "I Want to Know What Love Is"
Brian Eddolls - synthesizer
Larry Fast - synthesizer
Don Harper - backing vocals on "I Want to Know What Love Is"
Jennifer Holliday - backing vocals and arrangement on "I Want to Know What Love Is"
Dave Lebolt - synthesizer
Ian Lloyd - backing vocals
Bob Mayo - synthesizer, piano, backing vocals
New Jersey Mass Choir of the GMWA - backing vocals on "I Want to Know What Love Is"
Mark Rivera - saxophone, backing vocals
Jack Waldman - synthesizer
Thompson Twins - backing vocals

Exact Audio Copy V1.3 from 2. September 2016

EAC extraction logfile from 11. November 2018, 21:44

Foreigner / Agent Provocateur

Used drive : TSSTcorpCDDVDW TS-L633B Adapter: 1 ID: 0

Read mode : Secure
Utilize accurate stream : Yes
Defeat audio cache : Yes
Make use of C2 pointers : No

Read offset correction : 6
Overread into Lead-In and Lead-Out : No
Fill up missing offset samples with silence : Yes
Delete leading and trailing silent blocks : No
Null samples used in CRC calculations : Yes
Used interface : Native Win32 interface for Win NT & 2000

Used output format : Internal WAV Routines
Sample format : 44.100 Hz; 16 Bit; Stereo


TOC of the extracted CD

Track | Start | Length | Start sector | End sector
––––––––––––––––––––––––––––-
1 | 0:00.33 | 3:54.20 | 33 | 17602
2 | 3:54.53 | 3:50.15 | 17603 | 34867
3 | 7:44.68 | 5:05.37 | 34868 | 57779
4 | 12:50.30 | 4:14.15 | 57780 | 76844
5 | 17:04.45 | 3:59.50 | 76845 | 94819
6 | 21:04.20 | 5:04.35 | 94820 | 117654
7 | 26:08.55 | 4:30.25 | 117655 | 137929
8 | 30:39.05 | 4:10.68 | 137930 | 156747
9 | 34:49.73 | 4:31.17 | 156748 | 177089
10 | 39:21.15 | 3:09.25 | 177090 | 191289


Range status and errors

Selected range

Filename F:\Alexharvey\Foreigner - Agent Provocateur.wav

Peak level 92.5 %
Extraction speed 2.7 X
Range quality 100.0 %
Test CRC 6278DFB1
Copy CRC 6278DFB1
Copy OK

No errors occurred


AccurateRip summary

Track 1 accurately ripped (confidence 16) [225884A9] (AR v2)
Track 2 accurately ripped (confidence 16) [EBDDF7D4] (AR v2)
Track 3 accurately ripped (confidence 16) [4446A58B] (AR v2)
Track 4 accurately ripped (confidence 16) [AC523C66] (AR v2)
Track 5 accurately ripped (confidence 16) [A2EB7D9F] (AR v2)
Track 6 accurately ripped (confidence 16) [99B2148C] (AR v2)
Track 7 accurately ripped (confidence 16) [2FFC49F0] (AR v2)
Track 8 accurately ripped (confidence 16) [E1A7F235] (AR v2)
Track 9 accurately ripped (confidence 16) [4A997E04] (AR v2)
Track 10 accurately ripped (confidence 16) [86DDC24C] (AR v2)

All tracks accurately ripped

End of status report

–– CUETools DB Plugin V2.1.6

[CTDB TOCID: 4w3BOOJGIs5WWsRraQvF9LdiS9U-] found
Submit result: 4w3BOOJGIs5WWsRraQvF9LdiS9U- has been confirmed
Track | CTDB Status
1 | (45/47) Accurately ripped
2 | (45/47) Accurately ripped
3 | (47/47) Accurately ripped
4 | (47/47) Accurately ripped
5 | (47/47) Accurately ripped
6 | (47/47) Accurately ripped
7 | (47/47) Accurately ripped
8 | (46/47) Accurately ripped
9 | (47/47) Accurately ripped
10 | (46/47) Accurately ripped


==== Log checksum 35255B892444DF5A34A7C26C3F036EEF631DC404F0F6BD3F0EE08D75112ACBAB ====

foobar2000 1.4.1 beta 6 / Dynamic Range Meter 1.1.1
log date: 2018-11-11 21:57:09

––––––––––––––––––––––––––––––––––––––––
Analyzed: Foreigner / Agent Provocateur
––––––––––––––––––––––––––––––––––––––––

DR Peak RMS Duration Track
––––––––––––––––––––––––––––––––––––––––
DR11 -0.97 dB -15.64 dB 3:54 01-Tooth And Nail
DR11 -1.94 dB -15.44 dB 3:50 02-That Was Yesterday
DR11 -1.00 dB -15.65 dB 5:05 03-I Want To Know What Love Is
DR13 -1.42 dB -16.57 dB 4:14 04-Growing Up The Hard Way
DR12 -1.25 dB -15.61 dB 4:00 05-Reaction To Action
DR12 -1.18 dB -15.67 dB 5:04 06-Stranger In My Own House
DR11 -0.67 dB -14.55 dB 4:30 07-A Love In Vain
DR12 -2.17 dB -17.19 dB 4:11 08-Down On Love
DR11 -2.46 dB -17.26 dB 4:31 09-Two Different Worlds
DR12 -1.37 dB -16.57 dB 3:09 10-She's Too Tough
––––––––––––––––––––––––––––––––––––––––

Number of tracks: 10
Official DR value: DR12

Samplerate: 44100 Hz
Channels: 2
Bits per sample: 16
Bitrate: 885 kbps
Codec: FLAC
================================================================================

[CUETools log; Date: 11.11.2018 21:59:59; Version: 2.1.6]
Pregap length 00:00:33.
[CTDB TOCID: 4w3BOOJGIs5WWsRraQvF9LdiS9U-] found.
Track | CTDB Status
1 | (46/48) Accurately ripped
2 | (46/48) Accurately ripped
3 | (48/48) Accurately ripped
4 | (48/48) Accurately ripped
5 | (48/48) Accurately ripped
6 | (48/48) Accurately ripped
7 | (48/48) Accurately ripped
8 | (47/48) Accurately ripped
9 | (48/48) Accurately ripped
10 | (47/48) Accurately ripped
[AccurateRip ID: 00103706-0082437b-7a09f60a] found.
Track [ CRC | V2 ] Status
01 [bfe63f3f|225884a9] (14+16/58) Accurately ripped
02 [bb923b06|ebddf7d4] (15+16/59) Accurately ripped
03 [17405c5f|4446a58b] (15+16/59) Accurately ripped
04 [5f249e2c|ac523c66] (15+16/59) Accurately ripped
05 [60fca682|a2eb7d9f] (15+16/59) Accurately ripped
06 [5430d841|99b2148c] (15+16/59) Accurately ripped
07 [4ec53796|2ffc49f0] (15+16/59) Accurately ripped
08 [7bab410f|e1a7f235] (15+16/60) Accurately ripped
09 [3352a3e0|4a997e04] (15+16/57) Accurately ripped
10 [fb33bf68|86ddc24c] (15+16/56) Accurately ripped
Offsetted by -1485:
01 [d3fad14e] (09/58) Accurately ripped
02 [8ac2c513] (10/59) Accurately ripped
03 [c1deef90] (08/59) Accurately ripped
04 [a3836c05] (09/59) Accurately ripped
05 [dfe91efa] (09/59) Accurately ripped
06 [69d3cd17] (09/59) Accurately ripped
07 [abb82939] (09/59) Accurately ripped
08 [6c2ed3c5] (10/60) Accurately ripped
09 [c807b8ac] (10/57) Accurately ripped
10 [f89856ad] (09/56) Accurately ripped
Offsetted by 1569:
01 [0526afd0] (00/58) No match (V2 was not tested)
02 [53fdb7a5] (00/59) No match (V2 was not tested)
03 [830ba0ca] (00/59) No match (V2 was not tested)
04 [17f08c4f] (00/59) No match (V2 was not tested)
05 [35e7e92a] (00/59) No match (V2 was not tested)
06 [2a31ec53] (00/59) No match (V2 was not tested)
07 [56111287] (00/59) No match (V2 was not tested)
08 [362e33c1] (00/60) No match (V2 was not tested)
09 [c6d16064] (00/57) No match (V2 was not tested)
10 [e8632169] (00/56) No match (V2 was not tested)

Track Peak [ CRC32 ] [W/O NULL] [ LOG ]
– 92,5 [6278DFB1] [A14A04D1] CRC32
01 89,4 [C9110579] [3A3A0D00]
02 79,9 [3A9C09D6] [CA0E9354]
03 89,1 [AB417602] [A9404583]
04 84,9 [545A0B4F] [924E36FD]
05 86,5 [F85FBBB6] [F5A23E5E]
06 87,2 [4EFBAE47] [15CF91EE]
07 92,5 [72E4F65E] [A5110D98]
08 77,8 [DCBE6E3E] [37001E74]
09 75,3 [DB3FF55E] [26F690D7]
10 85,3 [71271FF2] [3D1C8280]

Foreigner - Agent Provocateur (1984)

All thanks go to Alexharvey

>>> Foreigner in my Blog <<<

Download from icerbox.com: