Subcategories
Tags
Language
Tags

Deep Purple: Japanese Early Pressing CDs Collection (1968-1975)

Posted By: v3122
Deep Purple: Japanese Early Pressing CDs Collection (1968-1975)

Deep Purple: Japanese Early Pressing CDs Collection (1968-1975)
EAC | Flac(Image) + Cue + Log & MP3 CBR 320Kbps
10CD | Warner Bros., Japan | ~ 2618 or 1047 Mb | Scans(jpg) -> 521 Mb
Hard Rock

Deep Purple are an English rock band formed in Hertford in 1968. The band is considered to be among the pioneers of heavy metal and modern hard rock, although their musical approach changed over the years. Originally formed as a progressive rock band, the band shifted to a heavier sound in 1970. Deep Purple, together with Led Zeppelin and Black Sabbath, have been referred to as the "unholy trinity of British hard rock and heavy metal in the early to mid-seventies". They were listed in the 1975 Guinness Book of World Records as "the globe's loudest band" for a 1972 concert at London's Rainbow Theatre, and have sold over 100 million albums worldwide.

Deep Purple have had several line-up changes and an eight-year hiatus (1976–1984). The 1968–1976 line-ups are commonly labelled Mark I, II, III and IV. Their second and most commercially successful line-up consisted of Ian Gillan (vocals), Jon Lord (keyboards, backing vocals), Roger Glover (bass), Ian Paice (drums), and Ritchie Blackmore (guitar). This line-up was active from 1969 to 1973, and was revived from 1984 to 1989, and again from 1992 to 1993. The band achieved more modest success in the intervening periods between 1968 and 1969 with the line-up including Rod Evans (lead vocals) and Nick Simper (bass, backing vocals), between 1974 and 1976 (Tommy Bolin replacing Blackmore in 1975) with the line-up including David Coverdale (lead vocals) and Glenn Hughes (bass, vocals), and between 1989 and 1992 with the line-up including Joe Lynn Turner (vocals). The band's line-up (currently including Ian Gillan, and guitarist Steve Morse from 1994) has been much more stable in recent years, although keyboardist Jon Lord's retirement from the band in 2002 (being succeeded by Don Airey) left Ian Paice as the only original Deep Purple member still in the band.

Deep Purple were ranked number 22 on VH1's Greatest Artists of Hard Rock programme and a poll on British radio station Planet Rock ranked them 5th among the "most influential bands ever". The band received the Legend Award at the 2008 World Music Awards. Deep Purple (specifically Blackmore, Lord, Paice, Gillan, Glover, Evans, Coverdale and Hughes) were inducted into the Rock and Roll Hall of Fame in 2016…

~ wiki
Deep Purple: Japanese Early Pressing CDs Collection (1968-1975):

Deep Purple: Japanese Early Pressing CDs Collection (1968-1975)

Tracklist CD1 - 1968. Shades Of Deep Purple (1989, Warner-Pioneer, Japan, 20P2-2601) [Repost]:

01. And The Address - 4:37
02. Hush - 4:23
03. One More Rainy Day - 3:39
04. (a) Prelude: Happiness (b) I'm So Glad - 7:18
05. Mandrake Root - 6:07
06. Help - 5:59
07. Love Help Me - 3:47
08. Hey Joe - 7:27

Exact Audio Copy V1.0 beta 4 from 7. December 2014

EAC extraction logfile from 24. December 2014, 20:59

Deep Purple / Shades Of Deep Purple (20P2-2601)

Used drive : ATAPI iHAS124 B Adapter: 1 ID: 0

Read mode : Secure
Utilize accurate stream : Yes
Defeat audio cache : Yes
Make use of C2 pointers : No

Read offset correction : 6
Overread into Lead-In and Lead-Out : No
Fill up missing offset samples with silence : Yes
Delete leading and trailing silent blocks : No
Null samples used in CRC calculations : Yes
Used interface : Installed external ASPI interface

Used output format : User Defined Encoder
Selected bitrate : 128 kBit/s
Quality : High
Add ID3 tag : Yes
Command line compressor : C:\Program Files (x86)\Exact Audio Copy\Flac\flac.exe
Additional command line options : -V -8 -T "Date=%year%" -T "Genre=%genre%" %source%


TOC of the extracted CD

Track | Start | Length | Start sector | End sector
––––––––––––––––––––––––––––-
1 | 0:00.00 | 4:37.17 | 0 | 20791
2 | 4:37.17 | 4:22.63 | 20792 | 40504
3 | 9:00.05 | 3:39.15 | 40505 | 56944
4 | 12:39.20 | 7:18.05 | 56945 | 89799
5 | 19:57.25 | 6:07.00 | 89800 | 117324
6 | 26:04.25 | 5:58.50 | 117325 | 144224
7 | 32:03.00 | 3:47.32 | 144225 | 161281
8 | 35:50.32 | 7:27.13 | 161282 | 194819


Range status and errors

Selected range

Filename G:\CD\Deep Purple - Shades Of Deep Purple.wav

Peak level 100.0 %
Extraction speed 5.3 X
Range quality 100.0 %
Test CRC 2AC28D9D
Copy CRC 2AC28D9D
Copy OK

No errors occurred


AccurateRip summary

Track 1 cannot be verified as accurate (confidence 2) [1AE8BAFC], AccurateRip returned [7E6DBE1B] (AR v2)
Track 2 cannot be verified as accurate (confidence 2) [7AA252E0], AccurateRip returned [A7B2D73D] (AR v2)
Track 3 cannot be verified as accurate (confidence 1) [7BFBE2AA], AccurateRip returned [489BDE98] (AR v2)
Track 4 cannot be verified as accurate (confidence 1) [C4E9A367], AccurateRip returned [64182060] (AR v2)
Track 5 cannot be verified as accurate (confidence 2) [158C092D], AccurateRip returned [BDDA12F7] (AR v2)
Track 6 cannot be verified as accurate (confidence 2) [9F262AE3], AccurateRip returned [18C98CC1] (AR v2)
Track 7 cannot be verified as accurate (confidence 1) [B9099979], AccurateRip returned [6CC07764] (AR v2)
Track 8 cannot be verified as accurate (confidence 1) [FD404F1A], AccurateRip returned [9FBA6D4B] (AR v2)

No tracks could be verified as accurate
You may have a different pressing from the one(s) in the database

End of status report

–– CUETools DB Plugin V2.1.4

[CTDB TOCID: ksSlEN.0UN_zc1aL6t3TyVm2Dv0-] found
Submit result: already submitted
Track | CTDB Status
1 | (3/3) Accurately ripped
2 | (3/3) Accurately ripped
3 | (3/3) Accurately ripped
4 | (3/3) Accurately ripped
5 | (3/3) Accurately ripped
6 | (3/3) Accurately ripped
7 | (3/3) Accurately ripped
8 | (3/3) Accurately ripped


==== Log checksum EE60D8E756F70BC631A39E65C9D1D5CCD9CC4AB2444BC2DF9746BBE4343785D6 ====


[CUETools log; Date: 31.01.2015 20:56:00; Version: 2.1.4]
[CTDB TOCID: ksSlEN.0UN_zc1aL6t3TyVm2Dv0-] found.
Track | CTDB Status
1 | (3/3) Accurately ripped
2 | (3/3) Accurately ripped
3 | (3/3) Accurately ripped
4 | (3/3) Accurately ripped
5 | (3/3) Accurately ripped
6 | (3/3) Accurately ripped
7 | (3/3) Accurately ripped
8 | (3/3) Accurately ripped
[AccurateRip ID: 000c995e-00556771-6e0a2508] found.
Track [ CRC | V2 ] Status
01 [66c2b93b|1ae8bafc] (0+0/4) No match
02 [9949643d|7aa252e0] (0+0/2) No match
03 [fe6038fe|7bfbe2aa] (0+0/2) No match
04 [fca41e00|c4e9a367] (0+0/2) No match
05 [43290d8c|158c092d] (0+0/2) No match
06 [ab0fd7ac|9f262ae3] (0+0/2) No match
07 [0f93f73c|b9099979] (0+0/2) No match
08 [3a44bd64|fd404f1a] (0+0/2) No match
Offsetted by 16:
01 [7e6dbe1b] (2/4) Accurately ripped
02 [c92dd453] (0/2) No match (V2 was not tested)
03 [489bde98] (1/2) Accurately ripped
04 [64182060] (1/2) Accurately ripped
05 [e7a928ac] (0/2) No match (V2 was not tested)
06 [18c98cc1] (2/2) Accurately ripped
07 [6cc07764] (1/2) Accurately ripped
08 [9fba6d4b] (1/2) Accurately ripped

Track Peak [ CRC32 ] [W/O NULL] [ LOG ]
– 100,0 [2AC28D9D] [92904A9B] CRC32
01 95,7 [E3C51588] [44DB6FC1]
02 100,0 [42BB97D7] [52417522]
03 91,3 [F74DB88D] [ED0D30DA]
04 100,0 [BB3D9742] [2BC3BEA9]
05 100,0 [F8A3AD3F] [89DF6810]
06 100,0 [A5FC957F] [87D2DA75]
07 100,0 [E0484A74] [1A2D2DAC]
08 100,0 [77B46399] [E712631E]


Deep Purple: Japanese Early Pressing CDs Collection (1968-1975)

Tracklist CD2 - 1968. The Book Of Taliesyn (1989, Warner Bros., Japan, 20P2-2602) [Repost]:

01. Listen, Learn, Read On - 4:06
02. Hard Road - 5:16
03. Kentucky Woman - 4:47
04. (a) Exposition (b) We Can Work It Out - 7:04
05. The Shield - 6:08
06. Anthem - 6:33
07. River Deep, Mountain High - 10:11

Exact Audio Copy V1.0 beta 4 from 7. December 2014

EAC extraction logfile from 9. January 2015, 22:54

Deep Purple / The Book Of Taliesyn (1989, 20P2-2602)

Used drive : ATAPI iHAS124 B Adapter: 1 ID: 0

Read mode : Secure
Utilize accurate stream : Yes
Defeat audio cache : Yes
Make use of C2 pointers : No

Read offset correction : 6
Overread into Lead-In and Lead-Out : No
Fill up missing offset samples with silence : Yes
Delete leading and trailing silent blocks : No
Null samples used in CRC calculations : Yes
Used interface : Installed external ASPI interface

Used output format : User Defined Encoder
Selected bitrate : 128 kBit/s
Quality : High
Add ID3 tag : Yes
Command line compressor : C:\Program Files (x86)\Exact Audio Copy\Flac\flac.exe
Additional command line options : -V -8 -T "Date=%year%" -T "Genre=%genre%" %source%


TOC of the extracted CD

Track | Start | Length | Start sector | End sector
––––––––––––––––––––––––––––-
1 | 0:00.00 | 4:06.10 | 0 | 18459
2 | 4:06.10 | 5:16.25 | 18460 | 42184
3 | 9:22.35 | 4:47.25 | 42185 | 63734
4 | 14:09.60 | 7:03.42 | 63735 | 95501
5 | 21:13.27 | 6:07.38 | 95502 | 123064
6 | 27:20.65 | 6:32.57 | 123065 | 152521
7 | 33:53.47 | 10:10.40 | 152522 | 198311


Range status and errors

Selected range

Filename G:\CD\Deep Purple - The Book Of Taliesyn.wav

Peak level 100.0 %
Extraction speed 5.3 X
Range quality 100.0 %
Test CRC B53143D8
Copy CRC B53143D8
Copy OK

No errors occurred


AccurateRip summary

Track 1 accurately ripped (confidence 3) [D78AFC1F] (AR v2)
Track 2 accurately ripped (confidence 3) [7381DD69] (AR v2)
Track 3 accurately ripped (confidence 3) [28E6A9D7] (AR v2)
Track 4 accurately ripped (confidence 3) [8DE745A8] (AR v2)
Track 5 accurately ripped (confidence 4) [D5B52CA2] (AR v2)
Track 6 accurately ripped (confidence 3) [57A24E9D] (AR v2)
Track 7 accurately ripped (confidence 3) [B635E9AA] (AR v2)

All tracks accurately ripped

End of status report

–– CUETools DB Plugin V2.1.4

[CTDB TOCID: hbZyM7qO77gNi8NAEobymvroGMQ-] found
Submit result: hbZyM7qO77gNi8NAEobymvroGMQ- has been confirmed
Track | CTDB Status
1 | (4/4) Accurately ripped
2 | (4/4) Accurately ripped
3 | (4/4) Accurately ripped
4 | (4/4) Accurately ripped
5 | (4/4) Accurately ripped
6 | (4/4) Accurately ripped
7 | (4/4) Accurately ripped


==== Log checksum D00DCA1434CF59F79D8591891D98E885BA39DCB2EF6019BD8BC993C65102285C ====


[CUETools log; Date: 31.01.2015 20:56:23; Version: 2.1.4]
[CTDB TOCID: hbZyM7qO77gNi8NAEobymvroGMQ-] found.
Track | CTDB Status
1 | (6/6) Accurately ripped
2 | (6/6) Accurately ripped
3 | (6/6) Accurately ripped
4 | (6/6) Accurately ripped
5 | (6/6) Accurately ripped
6 | (6/6) Accurately ripped
7 | (6/6) Accurately ripped
[AccurateRip ID: 000a9615-00416fd2-530a5407] found.
Track [ CRC | V2 ] Status
01 [cf35b17b|d78afc1f] (3+3/6) Accurately ripped
02 [d0ee81ab|7381dd69] (2+3/5) Accurately ripped
03 [c47db76c|28e6a9d7] (2+3/5) Accurately ripped
04 [a4c797d5|8de745a8] (2+3/5) Accurately ripped
05 [7e50de12|d5b52ca2] (2+4/6) Accurately ripped
06 [556a1408|57a24e9d] (2+3/5) Accurately ripped
07 [7f4a5a17|b635e9aa] (2+3/5) Accurately ripped

Track Peak [ CRC32 ] [W/O NULL] [ LOG ]
– 100,0 [B53143D8] [424A22EC] CRC32
01 95,9 [2137F0CA] [67A036D8]
02 90,9 [45B57474] [25A51EE5]
03 100,0 [6A6E4B21] [6285A952]
04 94,7 [0E3324AD] [9595FFAD]
05 99,9 [AB31CDEB] [E22829DF]
06 99,9 [9DF224B3] [4B1163C1]
07 96,1 [596A227A] [38F33239]


Deep Purple: Japanese Early Pressing CDs Collection (1968-1975)

Tracklist CD3 - 1969. Deep Purple (1990, Warner Bros., Japan, WPCP-4015) [Repost]:

01. Chasing Shadows - 5:36
02. Blind - 5:28
03. Lalena - 5:06
04. a) Fault Line b) The Painter - 5:38
05. Why Didn't Rosemary? - 5:07
06. Bird Has Flown - 5:37
07. April - 12:07

Exact Audio Copy V1.0 beta 4 from 7. December 2014

EAC extraction logfile from 28. January 2015, 21:02

Deep Purple / Deep Purple (1990, WPCP-4015)

Used drive : ATAPI iHAS124 B Adapter: 1 ID: 0

Read mode : Secure
Utilize accurate stream : Yes
Defeat audio cache : Yes
Make use of C2 pointers : No

Read offset correction : 6
Overread into Lead-In and Lead-Out : No
Fill up missing offset samples with silence : Yes
Delete leading and trailing silent blocks : No
Null samples used in CRC calculations : Yes
Used interface : Installed external ASPI interface

Used output format : User Defined Encoder
Selected bitrate : 128 kBit/s
Quality : High
Add ID3 tag : Yes
Command line compressor : C:\Program Files (x86)\Exact Audio Copy\Flac\flac.exe
Additional command line options : -V -8 -T "Date=%year%" -T "Genre=%genre%" %source%


TOC of the extracted CD

Track | Start | Length | Start sector | End sector
––––––––––––––––––––––––––––-
1 | 0:00.00 | 5:35.62 | 0 | 25186
2 | 5:35.62 | 5:27.43 | 25187 | 49754
3 | 11:03.30 | 5:05.65 | 49755 | 72694
4 | 16:09.20 | 5:38.30 | 72695 | 98074
5 | 21:47.50 | 5:06.72 | 98075 | 121096
6 | 26:54.47 | 5:36.55 | 121097 | 146351
7 | 32:31.27 | 12:07.20 | 146352 | 200896


Range status and errors

Selected range

Filename G:\CD\Deep Purple - Deep Purple.wav

Peak level 100.0 %
Extraction speed 5.3 X
Range quality 100.0 %
Test CRC FB3D0DEC
Copy CRC FB3D0DEC
Copy OK

No errors occurred


AccurateRip summary

Track 1 cannot be verified as accurate (confidence 2) [31236445], AccurateRip returned [E82B012B] (AR v2)
Track 2 cannot be verified as accurate (confidence 2) [15F7A1D8], AccurateRip returned [2F0BABD4] (AR v2)
Track 3 cannot be verified as accurate (confidence 2) [E6D8A129], AccurateRip returned [767F7D5E] (AR v2)
Track 4 cannot be verified as accurate (confidence 2) [BD4E4DE8], AccurateRip returned [E70C14DB] (AR v2)
Track 5 cannot be verified as accurate (confidence 2) [C19BB5AE], AccurateRip returned [2A6CA56F] (AR v2)
Track 6 cannot be verified as accurate (confidence 2) [40D17D99], AccurateRip returned [298EC43E] (AR v2)
Track 7 cannot be verified as accurate (confidence 2) [7DDA7226], AccurateRip returned [D17D62E3] (AR v2)

No tracks could be verified as accurate
You may have a different pressing from the one(s) in the database

End of status report

–– CUETools DB Plugin V2.1.4

[CTDB TOCID: spFJyxd9_8SMNEhbqkzjdeBg8YA-] found
Submit result: spFJyxd9_8SMNEhbqkzjdeBg8YA- has been confirmed
Track | CTDB Status
1 | (3/3) Accurately ripped
2 | (3/3) Accurately ripped
3 | (3/3) Accurately ripped
4 | (3/3) Accurately ripped
5 | (3/3) Accurately ripped
6 | (3/3) Accurately ripped
7 | (3/3) Accurately ripped


==== Log checksum 28304FC3FC261979CC02AA1635E9ADC62A76272F72FA3C75A44E99BC9849D628 ====


[CUETools log; Date: 31.01.2015 20:57:44; Version: 2.1.4]
[CTDB TOCID: spFJyxd9_8SMNEhbqkzjdeBg8YA-] found.
Track | CTDB Status
1 | (4/4) Accurately ripped
2 | (4/4) Accurately ripped
3 | (4/4) Accurately ripped
4 | (4/4) Accurately ripped
5 | (4/4) Accurately ripped
6 | (4/4) Accurately ripped
7 | (4/4) Accurately ripped
[AccurateRip ID: 000ae54a-00423549-5e0a7607] found.
Track [ CRC | V2 ] Status
01 [f9d3461c|31236445] (0+0/2) No match
02 [cce4ce95|15f7a1d8] (0+0/2) No match
03 [54de4abb|e6d8a129] (0+0/2) No match
04 [886346a1|bd4e4de8] (0+0/2) No match
05 [3e1533f4|c19bb5ae] (0+0/2) No match
06 [af7ef45d|40d17d99] (0+0/2) No match
07 [ce45c937|7dda7226] (0+0/2) No match
Offsetted by -1358:
01 [52f6c068] (0/2) No match (V2 was not tested)
02 [9643ba6d] (0/2) No match (V2 was not tested)
03 [a84fbc81] (0/2) No match (V2 was not tested)
04 [41fbb91b] (0/2) No match (V2 was not tested)
05 [7f158eac] (0/2) No match (V2 was not tested)
06 [317db819] (0/2) No match (V2 was not tested)
07 [d57c3a17] (0/2) No match (V2 was not tested)
Offsetted by 6:
01 [7ca2dba0] (0/2) No match (V2 was not tested)
02 [7af1955d] (0/2) No match (V2 was not tested)
03 [4c95065d] (0/2) No match (V2 was not tested)
04 [1f8245bf] (0/2) No match (V2 was not tested)
05 [582ff85c] (0/2) No match (V2 was not tested)
06 [24ee2eb1] (0/2) No match (V2 was not tested)
07 [930c3cd7] (0/2) No match (V2 was not tested)

Track Peak [ CRC32 ] [W/O NULL] [ LOG ]
– 100,0 [FB3D0DEC] [AE161D5F] CRC32
01 91,2 [81B27AB8] [74B31314]
02 99,9 [34D84042] [90C0922C]
03 81,8 [B23E1E09] [2C1AE7A7]
04 97,9 [56B1FF6E] [B67251E6]
05 99,8 [CBA0031A] [370BC874]
06 92,2 [3B3F6ED7] [F0278A71]
07 100,0 [77A9F816] [7A7B70EA]


Deep Purple: Japanese Early Pressing CDs Collection (1968-1975)

Tracklist CD4 - 1970. Deep Purple In Rock (1987, Warner-Pioneer, Japan, 32XD-898):

01. Speed King - 4:25
02. Bloodsucker - 4:16
03. Child In Time - 10:20
04. Flight Of The Rat - 7:58
05. Into The Fire - 3:30
06. Living Wreck - 4:35
07. Hard Lovin' Man - 7:12

Exact Audio Copy V1.0 beta 3 from 29. August 2011

EAC extraction logfile from 10. January 2014, 16:24

Deep Purple / (1970) In Rock

Used drive : SONY BD RW BDX-S600U Adapter: 2 ID: 1

Read mode : Secure
Utilize accurate stream : Yes
Defeat audio cache : Yes
Make use of C2 pointers : No

Read offset correction : 48
Overread into Lead-In and Lead-Out : No
Fill up missing offset samples with silence : Yes
Delete leading and trailing silent blocks : No
Null samples used in CRC calculations : Yes
Used interface : Native Win32 interface for Win NT & 2000

Used output format : User Defined Encoder
Selected bitrate : 128 kBit/s
Quality : High
Add ID3 tag : No
Command line compressor : C:\Program Files (x86)\Exact Audio Copy\Flac\flac.exe
Additional command line options : -V -8 -T "Date=%year%" -T "Genre=%genre%" %source%


TOC of the extracted CD

Track | Start | Length | Start sector | End sector
––––––––––––––––––––––––––––-
1 | 0:00.00 | 4:24.72 | 0 | 19871
2 | 4:24.72 | 4:16.13 | 19872 | 39084
3 | 8:41.10 | 10:20.25 | 39085 | 85609
4 | 19:01.35 | 7:58.17 | 85610 | 121476
5 | 26:59.52 | 3:30.13 | 121477 | 137239
6 | 30:29.65 | 4:34.60 | 137240 | 157849
7 | 35:04.50 | 7:12.35 | 157850 | 190284


Range status and errors

Selected range

Filename F:\music\1970. Deep Purple - Deep Purple In Rock (Warner-Pioner Corp., 32XD-898,Japan)\Deep Purple - (1970) In Rock.wav

Peak level 100.0 %
Extraction speed 6.2 X
Range quality 99.9 %
Test CRC 723664F9
Copy CRC 723664F9
Copy OK

No errors occurred


AccurateRip summary

Track 1 cannot be verified as accurate (confidence 5) [A35A3D40], AccurateRip returned [E3684C47] (AR v2)
Track 2 cannot be verified as accurate (confidence 4) [88205C02], AccurateRip returned [CCF88C0C] (AR v2)
Track 3 cannot be verified as accurate (confidence 5) [628F037E], AccurateRip returned [52446195] (AR v2)
Track 4 cannot be verified as accurate (confidence 5) [71BC7C67], AccurateRip returned [D922B5A9] (AR v2)
Track 5 cannot be verified as accurate (confidence 5) [BBACF14F], AccurateRip returned [E069D043] (AR v2)
Track 6 cannot be verified as accurate (confidence 5) [7F8ECD8F], AccurateRip returned [88298994] (AR v2)
Track 7 cannot be verified as accurate (confidence 5) [13075C49], AccurateRip returned [1F18BB65] (AR v2)

No tracks could be verified as accurate
You may have a different pressing from the one(s) in the database

End of status report

–– CUETools DB Plugin V2.1.3

[CTDB TOCID: IcPaSr0lKcbbN8Q9dAd_sKUyBxQ-] found, Submit result: IcPaSr0lKcbbN8Q9dAd_sKUyBxQ- has been confirmed
[6594c65d] (5/5) Accurately ripped


==== Log checksum 88011EDD6F7CD38144F7EDB76A2721CB7CED304C287841BB8F1DCD1082E1BAEC ====


[CUETools log; Date: 05.02.2014 10:58:54; Version: 2.1.4]
[CTDB TOCID: IcPaSr0lKcbbN8Q9dAd_sKUyBxQ-] found.
Track | CTDB Status
1 | (5/5) Accurately ripped
2 | (5/5) Accurately ripped
3 | (5/5) Accurately ripped
4 | (5/5) Accurately ripped
5 | (5/5) Accurately ripped
6 | (5/5) Accurately ripped
7 | (5/5) Accurately ripped
[AccurateRip ID: 000b773b-00458ab7-4309e907] found.
Track [ CRC | V2 ] Status
01 [309a62d7|a35a3d40] (0+0/8) No match
02 [9adecae1|88205c02] (0+0/7) No match
03 [a3d8cf55|628f037e] (0+0/9) No match
04 [01e21676|71bc7c67] (0+0/8) No match
05 [30b72c1c|bbacf14f] (0+0/8) No match
06 [3fe52dc3|7f8ecd8f] (0+0/8) No match
07 [5a15ef2b|13075c49] (0+0/8) No match
Offsetted by 141:
01 [a1459cd9] (3/8) Accurately ripped
02 [0f198363] (3/7) Accurately ripped
03 [0a1ef02c] (4/9) Accurately ripped
04 [c2582128] (3/8) Accurately ripped
05 [4ccff042] (3/8) Accurately ripped
06 [7c22aa95] (3/8) Accurately ripped
07 [b796e777] (3/8) Accurately ripped

Track Peak [ CRC32 ] [W/O NULL] [ LOG ]
– 100,0 [723664F9] [02B47301] CRC32
01 84,5 [59565F03] [CB66F3AF]
02 83,0 [A0A7A015] [BB2A1259]
03 98,8 [73087C60] [BAD233BC]
04 100,0 [4524B1D8] [215BA0E7]
05 92,8 [0F209B05] [E26AFA46]
06 99,9 [8F4AB9A5] [03CF006E]
07 79,3 [5BEAF090] [AECC0069]


Deep Purple: Japanese Early Pressing CDs Collection (1968-1975)

Tracklist CD5 - 1971. Fireball (1989, Warner, Japan, 20P2-2604) [Repost]:

01. Fireball - 3:25
02. No No No - 6:55
03. Strange Kind of Woman - 4:07
04. Anyone's Daughter - 4:45
05. The Mule - 5:22
06. Fools - 8:20
07. No One Came - 6:27

Exact Audio Copy V1.0 beta 3 from 29. August 2011

EAC extraction logfile from 1. February 2014, 10:23

Deep Purple / Fireball

Used drive : PLEXTOR DVDR PX-L890SA Adapter: 1 ID: 0

Read mode : Secure
Utilize accurate stream : Yes
Defeat audio cache : Yes
Make use of C2 pointers : No

Read offset correction : 6
Overread into Lead-In and Lead-Out : No
Fill up missing offset samples with silence : Yes
Delete leading and trailing silent blocks : No
Null samples used in CRC calculations : Yes
Used interface : Native Win32 interface for Win NT & 2000

Used output format : User Defined Encoder
Selected bitrate : 768 kBit/s
Quality : High
Add ID3 tag : No
Command line compressor : G:\Program Files\Exact Audio Copy\FLAC\FLAC.EXE
Additional command line options : -V -8 -T "Date=%year%" -T "Genre=%genre%" %source%


TOC of the extracted CD

Track | Start | Length | Start sector | End sector
––––––––––––––––––––––––––––-
1 | 0:00.00 | 3:25.27 | 0 | 15401
2 | 3:25.27 | 6:54.58 | 15402 | 46509
3 | 10:20.10 | 4:07.02 | 46510 | 65036
4 | 14:27.12 | 4:44.43 | 65037 | 86379
5 | 19:11.55 | 5:22.02 | 86380 | 110531
6 | 24:33.57 | 8:20.23 | 110532 | 148054
7 | 32:54.05 | 6:26.70 | 148055 | 177074


Range status and errors

Selected range

Filename H:\MUSIC\Deep Purple\1971. Deep Purple - Fireball (Warner 20P2-2604, Japan)\Deep Purple - Fireball.wav

Peak level 100.0 %
Extraction speed 5.3 X
Range quality 100.0 %
Test CRC 5688DC0D
Copy CRC 5688DC0D
Copy OK

No errors occurred


AccurateRip summary

Track 1 accurately ripped (confidence 3) [1A8F0D1C] (AR v2)
Track 2 accurately ripped (confidence 3) [E4B0754B] (AR v2)
Track 3 accurately ripped (confidence 3) [EF9B4BA5] (AR v2)
Track 4 accurately ripped (confidence 3) [6DD48C6F] (AR v2)
Track 5 accurately ripped (confidence 3) [6077F237] (AR v2)
Track 6 accurately ripped (confidence 3) [8152C6DE] (AR v2)
Track 7 accurately ripped (confidence 3) [4635F281] (AR v2)

All tracks accurately ripped

End of status report

–– CUETools DB Plugin V2.1.3

[CTDB TOCID: KEsewFtPVfUVaFmPN61DOUmSr5M-] found, Submit result: KEsewFtPVfUVaFmPN61DOUmSr5M- has been confirmed
[be5ca520] (4/4) Accurately ripped


==== Log checksum DA54BC537B4DD73C26DAA9C8F23721D00E653FB9D099B93CEAFE6E4588AD05FE ====


[CUETools log; Date: 02.02.2014 11:12:13; Version: 2.1.2a]
[CTDB TOCID: KEsewFtPVfUVaFmPN61DOUmSr5M-] found.
[ CTDBID ] Status
[be5ca520] (5/5) Accurately ripped
[AccurateRip ID: 0009e71f-003cb540-5e093907] found.
Track [ CRC ] Status
01 [ad359ad6] (2/9) Accurately ripped
02 [fb5a7fbf] (2/9) Accurately ripped
03 [da766d52] (2/9) Accurately ripped
04 [fb533e8a] (2/9) Accurately ripped
05 [4808fad0] (2/9) Accurately ripped
06 [5b2ccace] (2/9) Accurately ripped
07 [a6faf361] (2/9) Accurately ripped
AccurateRip v2:
01 [1a8f0d1c] (4/9) Accurately ripped
02 [e4b0754b] (4/9) Accurately ripped
03 [ef9b4ba5] (4/9) Accurately ripped
04 [6dd48c6f] (4/9) Accurately ripped
05 [6077f237] (4/9) Accurately ripped
06 [8152c6de] (4/9) Accurately ripped
07 [4635f281] (4/9) Accurately ripped
Offsetted by 43:
01 [d386bdb3] (3/9) Accurately ripped
02 [25b77cf6] (3/9) Accurately ripped
03 [32df5789] (3/9) Accurately ripped
04 [bff7ca7b] (3/9) Accurately ripped
05 [bda95c37] (3/9) Accurately ripped
06 [a0db7b1c] (3/9) Accurately ripped
07 [8f083e79] (3/9) Accurately ripped

Track Peak [ CRC32 ] [W/O NULL] [ LOG ]
– 100,0 [5688DC0D] [45D83396] CRC32
01 75,0 [5AD74EB0] [3376D7DC]
02 76,3 [CC83CD98] [B2FF83C8]
03 74,1 [7FDB6289] [E0D9B533]
04 70,2 [720AA58A] [D29B282D]
05 92,5 [16CE20BD] [6A26011C]
06 80,7 [8109C7B5] [1591E0D9]
07 100,0 [7556BF50] [4C15185B]


Deep Purple: Japanese Early Pressing CDs Collection (1968-1975)

Tracklist CD6 - 1972. Machine Head (1987, Warner-Pioneer, Japan, 32XD-564):

01. Highway Star - 6:09
02. Maybe I'm A Leo - 4:52
03. Pictures Of Home - 5:07
04. Never Before - 4:00
05. Smoke On The Water - 5:42
06. Lazy - 7:23
07. Space Truckin' - 4:35

Exact Audio Copy V1.0 beta 3 from 29. August 2011

EAC extraction logfile from 13. January 2014, 21:03

Deep Purple / Machine Head (Japan 32XD-564) [1st Pressing]

Used drive : SONY BD RW BDX-S600U Adapter: 2 ID: 1

Read mode : Secure
Utilize accurate stream : Yes
Defeat audio cache : Yes
Make use of C2 pointers : No

Read offset correction : 48
Overread into Lead-In and Lead-Out : No
Fill up missing offset samples with silence : Yes
Delete leading and trailing silent blocks : No
Null samples used in CRC calculations : Yes
Used interface : Native Win32 interface for Win NT & 2000

Used output format : User Defined Encoder
Selected bitrate : 128 kBit/s
Quality : High
Add ID3 tag : No
Command line compressor : C:\Program Files (x86)\Exact Audio Copy\Flac\flac.exe
Additional command line options : -V -8 -T "Date=%year%" -T "Genre=%genre%" %source%


TOC of the extracted CD

Track | Start | Length | Start sector | End sector
––––––––––––––––––––––––––––-
1 | 0:00.00 | 6:08.50 | 0 | 27649
2 | 6:08.50 | 4:52.25 | 27650 | 49574
3 | 11:01.00 | 5:07.17 | 49575 | 72616
4 | 16:08.17 | 4:00.35 | 72617 | 90651
5 | 20:08.52 | 5:42.08 | 90652 | 116309
6 | 25:50.60 | 7:22.42 | 116310 | 149501
7 | 33:13.27 | 4:34.48 | 149502 | 170099


Range status and errors

Selected range

Filename F:\music\1970. Deep Purple - Machine Head (Warner-Pioner Corp., 32XD-564,Japan)\Deep Purple - Machine Head (Japan 32XD-564) [1st Pressing].wav

Peak level 95.9 %
Extraction speed 6.1 X
Range quality 100.0 %
Test CRC 128945BD
Copy CRC 128945BD
Copy OK

No errors occurred


AccurateRip summary

Track 1 accurately ripped (confidence 4) [5F7B0995] (AR v2)
Track 2 accurately ripped (confidence 4) [AF9543B6] (AR v2)
Track 3 accurately ripped (confidence 4) [6DC5FC15] (AR v2)
Track 4 accurately ripped (confidence 4) [013A81A7] (AR v2)
Track 5 accurately ripped (confidence 4) [123A6953] (AR v2)
Track 6 accurately ripped (confidence 4) [D484B3DC] (AR v2)
Track 7 accurately ripped (confidence 4) [F1A9177E] (AR v2)

All tracks accurately ripped

End of status report

–– CUETools DB Plugin V2.1.3

[CTDB TOCID: Q9gLiJADycutqeaA3UnqJmU3jS8-] found, Submit result: Q9gLiJADycutqeaA3UnqJmU3jS8- has been confirmed
[1888e301] (18/18) Accurately ripped


==== Log checksum FD6C09AEF4F28FF75414BC2BC4B94337E87D050DFE066EAE0BEB5ACECC747CCB ====


[CUETools log; Date: 05.02.2014 10:59:09; Version: 2.1.4]
[CTDB TOCID: Q9gLiJADycutqeaA3UnqJmU3jS8-] found.
Track | CTDB Status
1 | (15/15) Accurately ripped
2 | (15/15) Accurately ripped
3 | (15/15) Accurately ripped
4 | (15/15) Accurately ripped
5 | (15/15) Accurately ripped
6 | (15/15) Accurately ripped
7 | (15/15) Accurately ripped
[AccurateRip ID: 000a5236-003dd7c0-5408dc07] found.
Track [ CRC | V2 ] Status
01 [20994524|5f7b0995] (07+04/29) Accurately ripped
02 [12edd131|af9543b6] (07+04/29) Accurately ripped
03 [a67acbca|6dc5fc15] (07+04/28) Accurately ripped
04 [f1f2802a|013a81a7] (06+04/28) Accurately ripped
05 [eb748824|123a6953] (06+04/28) Accurately ripped
06 [128d1ea5|d484b3dc] (06+04/29) Accurately ripped
07 [9e22be82|f1a9177e] (06+04/28) Accurately ripped
Offsetted by -39:
01 [8b5ef4cd] (05/29) Accurately ripped
02 [6fc6cd6f] (05/29) Accurately ripped
03 [601a466c] (05/28) Accurately ripped
04 [1ec84b88] (05/28) Accurately ripped
05 [d9e616ae] (05/28) Accurately ripped
06 [4f927351] (05/29) Accurately ripped
07 [56aa3ac2] (05/28) Accurately ripped
Offsetted by 34:
01 [959107e6] (00/29) No match (V2 was not tested)
02 [526529cd] (00/29) No match (V2 was not tested)
03 [1ee932ee] (00/28) No match (V2 was not tested)
04 [ebae4506] (00/28) No match (V2 was not tested)
05 [e7118898] (00/28) No match (V2 was not tested)
06 [0b4d653d] (00/29) No match (V2 was not tested)
07 [9acd7302] (00/28) No match (V2 was not tested)

Track Peak [ CRC32 ] [W/O NULL] [ LOG ]
– 95,9 [128945BD] [25470D6A] CRC32
01 79,3 [5509D319] [6C806798]
02 85,1 [27545D40] [45144547]
03 79,3 [6608CE7F] [3272197D]
04 77,9 [A0F0D884] [15D7587D]
05 95,9 [28424CFA] [9BFE4FDE]
06 78,9 [FDA872DD] [819DC76E]
07 88,9 [A5412E10] [89747288]


Deep Purple: Japanese Early Pressing CDs Collection (1968-1975)

Tracklist CD7 - 1973. Who Do We Think We Are (1989, Warner, Japan, 20P2-2607) [Repost]:

01. Woman From Tokyo - 5:55
02. Mary Long - 4:27
03. Super Trouper - 2:57
04. Smooth Dancer - 4:12
05. Rat Bat Blue - 5:28
06. Place In Line - 6:34
07. Our Lady - 5:11

Exact Audio Copy V1.0 beta 3 from 29. August 2011

EAC extraction logfile from 26. March 2014, 19:40

Deep Purple / Who Do We Think We Are

Used drive : PLEXTOR DVDR PX-L890SA Adapter: 1 ID: 0

Read mode : Secure
Utilize accurate stream : Yes
Defeat audio cache : Yes
Make use of C2 pointers : No

Read offset correction : 6
Overread into Lead-In and Lead-Out : No
Fill up missing offset samples with silence : Yes
Delete leading and trailing silent blocks : No
Null samples used in CRC calculations : Yes
Used interface : Native Win32 interface for Win NT & 2000

Used output format : User Defined Encoder
Selected bitrate : 768 kBit/s
Quality : High
Add ID3 tag : No
Command line compressor : G:\Program Files\Exact Audio Copy\FLAC\FLAC.EXE
Additional command line options : -V -8 -T "Date=%year%" -T "Genre=%genre%" %source%


TOC of the extracted CD

Track | Start | Length | Start sector | End sector
––––––––––––––––––––––––––––-
1 | 0:00.00 | 5:54.40 | 0 | 26589
2 | 5:54.40 | 4:26.42 | 26590 | 46581
3 | 10:21.07 | 2:57.30 | 46582 | 59886
4 | 13:18.37 | 4:12.10 | 59887 | 78796
5 | 17:30.47 | 5:28.10 | 78797 | 103406
6 | 22:58.57 | 6:33.70 | 103407 | 132951
7 | 29:32.52 | 5:11.13 | 132952 | 156289


Range status and errors

Selected range

Filename H:\MUSIC\Deep Purple\1973. Deep Purple - Who Do We Think We Are (Warner 20P2-2607, Japan)\Deep Purple - Who Do We Think We Are.wav

Peak level 89.6 %
Extraction speed 5.2 X
Range quality 100.0 %
Test CRC 9B5A406B
Copy CRC 9B5A406B
Copy OK

No errors occurred


AccurateRip summary

Track 1 accurately ripped (confidence 2) [CA246035] (AR v2)
Track 2 accurately ripped (confidence 2) [7DC331D8] (AR v2)
Track 3 accurately ripped (confidence 2) [B9FAE09E] (AR v2)
Track 4 accurately ripped (confidence 2) [0220D99A] (AR v2)
Track 5 accurately ripped (confidence 2) [6DDF4428] (AR v2)
Track 6 accurately ripped (confidence 2) [CD3DF91E] (AR v2)
Track 7 accurately ripped (confidence 2) [4FDC6CEB] (AR v2)

All tracks accurately ripped

End of status report

==== Log checksum 1ED8A80751DB78FC7961CB300F809A9056BDFCCEA3FFC9C7A4828FF14D116438 ====


[CUETools log; Date: 26.03.2014 19:41:14; Version: 2.1.2a]
[CTDB TOCID: maYOek5GEspD71uXErvCM5bxPvY-] found.
[ CTDBID ] Status
[00dedad5] (2/2) Accurately ripped
[AccurateRip ID: 00093959-00375b6e-4a082307] found.
Track [ CRC ] Status
01 [e63ec1ad] (3/5) Accurately ripped
02 [d59e38d0] (2/4) Accurately ripped
03 [8b38d6a4] (2/4) Accurately ripped
04 [9920ccee] (2/4) Accurately ripped
05 [ce832130] (2/4) Accurately ripped
06 [8a7269be] (2/4) Accurately ripped
07 [c6855f13] (2/4) Accurately ripped
AccurateRip v2:
01 [ca246035] (2/5) Accurately ripped
02 [7dc331d8] (2/4) Accurately ripped
03 [b9fae09e] (2/4) Accurately ripped
04 [0220d99a] (2/4) Accurately ripped
05 [6ddf4428] (2/4) Accurately ripped
06 [cd3df91e] (2/4) Accurately ripped
07 [4fdc6ceb] (2/4) Accurately ripped

Track Peak [ CRC32 ] [W/O NULL] [ LOG ]
– 89,6 [9B5A406B] [694EAA17] CRC32
01 86,1 [41BFD57A] [BA2DDFDE]
02 79,4 [976D2E55] [2E30F96D]
03 82,0 [820774A5] [1485AC6C]
04 89,3 [452816F2] [B3E6B78A]
05 89,6 [E2EC4E2C] [DD39FC22]
06 87,7 [84FF8A68] [C48CC206]
07 89,1 [D0A3116D] [73450CCB]


Deep Purple: Japanese Early Pressing CDs Collection (1968-1975)

Tracklist CD8 - 1974. Burn (1989, Warner, Japan, 20P2-2608) [Repost]:

01. Burn - 6:06
02. Might Just Take Your Life - 4:41
03. Lay Down, Stay Down - 4:20
04. Sail Away - 5:53
05. You Fool No One - 4:49
06. What's Goin' On Here - 4:59
07. Mistreated - 7:31
08. 'A' 200 - 4:06

Exact Audio Copy V1.0 beta 3 from 29. August 2011

EAC extraction logfile from 1. February 2014, 11:30

Deep Purple / Burn

Used drive : PLEXTOR DVDR PX-L890SA Adapter: 1 ID: 0

Read mode : Secure
Utilize accurate stream : Yes
Defeat audio cache : Yes
Make use of C2 pointers : No

Read offset correction : 6
Overread into Lead-In and Lead-Out : No
Fill up missing offset samples with silence : Yes
Delete leading and trailing silent blocks : No
Null samples used in CRC calculations : Yes
Used interface : Native Win32 interface for Win NT & 2000

Used output format : User Defined Encoder
Selected bitrate : 768 kBit/s
Quality : High
Add ID3 tag : No
Command line compressor : G:\Program Files\Exact Audio Copy\FLAC\FLAC.EXE
Additional command line options : -V -8 -T "Date=%year%" -T "Genre=%genre%" %source%


TOC of the extracted CD

Track | Start | Length | Start sector | End sector
––––––––––––––––––––––––––––-
1 | 0:00.00 | 6:05.70 | 0 | 27444
2 | 6:05.70 | 4:41.35 | 27445 | 48554
3 | 10:47.30 | 4:20.35 | 48555 | 68089
4 | 15:07.65 | 5:52.47 | 68090 | 94536
5 | 21:00.37 | 4:48.48 | 94537 | 116184
6 | 25:49.10 | 4:59.25 | 116185 | 138634
7 | 30:48.35 | 7:30.55 | 138635 | 172439
8 | 38:19.15 | 4:05.60 | 172440 | 190874


Range status and errors

Selected range

Filename H:\MUSIC\Deep Purple\1974. Deep Purple - Burn (Warner 20P2-2608, Japan)\Deep Purple - Burn.wav

Peak level 100.0 %
Extraction speed 5.4 X
Range quality 100.0 %
Test CRC AA47ECEA
Copy CRC AA47ECEA
Copy OK

No errors occurred


AccurateRip summary

Track 1 accurately ripped (confidence 7) [33429FCD] (AR v2)
Track 2 accurately ripped (confidence 8) [47AACA7F] (AR v2)
Track 3 accurately ripped (confidence 8) [919383A6] (AR v2)
Track 4 accurately ripped (confidence 8) [3098F40C] (AR v2)
Track 5 accurately ripped (confidence 8) [FC11EE8E] (AR v2)
Track 6 accurately ripped (confidence 8) [8315F9B7] (AR v2)
Track 7 accurately ripped (confidence 7) [96E49D65] (AR v2)
Track 8 accurately ripped (confidence 8) [F8924581] (AR v2)

All tracks accurately ripped

End of status report

–– CUETools DB Plugin V2.1.3

[CTDB TOCID: 36bVzOLhP6n7Dz.BLmtQhnR3pqc-] found, Submit result: 36bVzOLhP6n7Dz.BLmtQhnR3pqc- has been confirmed
[30e2c361] (11/11) Accurately ripped


==== Log checksum 08573BC59BF1186457B2EADB494CB8F01B1C8309387015DC6F4227D9F9681441 ====


[CUETools log; Date: 01.02.2014 20:54:41; Version: 2.1.2a]
[CTDB TOCID: 36bVzOLhP6n7Dz.BLmtQhnR3pqc-] found.
[ CTDBID ] Status
[30e2c361] (12/12) Accurately ripped
[AccurateRip ID: 000d12ba-005722d7-6209f108] found.
Track [ CRC ] Status
01 [2d7a0d04] (11/21) Accurately ripped
02 [6905a1a1] (11/22) Accurately ripped
03 [baad23f4] (11/22) Accurately ripped
04 [564b6b3d] (11/22) Accurately ripped
05 [0b1d3dee] (11/22) Accurately ripped
06 [b05cbc31] (11/22) Accurately ripped
07 [3a90a534] (11/21) Accurately ripped
08 [c296e343] (11/22) Accurately ripped
AccurateRip v2:
01 [33429fcd] (07/21) Accurately ripped
02 [47aaca7f] (08/22) Accurately ripped
03 [919383a6] (08/22) Accurately ripped
04 [3098f40c] (08/22) Accurately ripped
05 [fc11ee8e] (08/22) Accurately ripped
06 [8315f9b7] (08/22) Accurately ripped
07 [96e49d65] (07/21) Accurately ripped
08 [f8924581] (08/22) Accurately ripped
Offsetted by 362:
01 [c197ae82] (00/21) No match
02 [6fb5b05f] (03/22) Accurately ripped
03 [a192093c] (03/22) Accurately ripped
04 [86a08d8f] (03/22) Accurately ripped
05 [b1224b44] (03/22) Accurately ripped
06 [152baae3] (03/22) Accurately ripped
07 [ffa225d2] (03/21) Accurately ripped
08 [ded774c5] (03/22) Accurately ripped
Offsetted by 370:
01 [1c8e6f9a] (03/21) Accurately ripped
02 [6e717277] (00/22) No match
03 [23231ddc] (00/22) No match
04 [d85066b7] (00/22) No match
05 [d8297a3c] (00/22) No match
06 [1e785f8b] (00/22) No match
07 [231ac16a] (00/21) No match
08 [9fd1cfad] (00/22) No match

Track Peak [ CRC32 ] [W/O NULL] [ LOG ]
– 100,0 [AA47ECEA] [B7CF83D6] CRC32
01 100,0 [8F667F01] [F3A3785C]
02 100,0 [A41661BC] [82421D95]
03 98,8 [08895F05] [ED2612CA]
04 100,0 [FEE1A42F] [FA919166]
05 85,1 [7FAE3615] [E139629C]
06 78,9 [01460306] [C19C4643]
07 98,8 [06D3DA30] [702900AE]
08 79,0 [ED58D66D] [CC2747F6]


Deep Purple: Japanese Early Pressing CDs Collection (1968-1975)

Tracklist CD9 - 1974. Stormbringer (1989, Warner, Japan, 20P2-2609) [Repost]:

01. Stormbringer - 4:08
02. Love Don't Mean A Thing - 4:26
03. Holy Man - 4:32
04. Hold On - 5:08
05. Lady Double Dealer - 3:23
06. You Can't Do It Right (With The One You Love) - 3:27
07. High Ball Shooter - 4:29
08. The Gypsy - 4:07
09. Soldier Of Fortune - 3:17

Exact Audio Copy V1.0 beta 3 from 29. August 2011

EAC extraction logfile from 1. February 2014, 11:51

Deep Purple / Stormbringer {Japan 20P2-2609}

Used drive : PLEXTOR DVDR PX-L890SA Adapter: 1 ID: 0

Read mode : Secure
Utilize accurate stream : Yes
Defeat audio cache : Yes
Make use of C2 pointers : No

Read offset correction : 6
Overread into Lead-In and Lead-Out : No
Fill up missing offset samples with silence : Yes
Delete leading and trailing silent blocks : No
Null samples used in CRC calculations : Yes
Used interface : Native Win32 interface for Win NT & 2000

Used output format : User Defined Encoder
Selected bitrate : 768 kBit/s
Quality : High
Add ID3 tag : No
Command line compressor : G:\Program Files\Exact Audio Copy\FLAC\FLAC.EXE
Additional command line options : -V -8 -T "Date=%year%" -T "Genre=%genre%" %source%


TOC of the extracted CD

Track | Start | Length | Start sector | End sector
––––––––––––––––––––––––––––-
1 | 0:00.00 | 4:07.70 | 0 | 18594
2 | 4:07.70 | 4:25.65 | 18595 | 38534
3 | 8:33.60 | 4:31.55 | 38535 | 58914
4 | 13:05.40 | 5:08.27 | 58915 | 82041
5 | 18:13.67 | 3:22.60 | 82042 | 97251
6 | 21:36.52 | 3:26.45 | 97252 | 112746
7 | 25:03.22 | 4:29.33 | 112747 | 132954
8 | 29:32.55 | 4:06.55 | 132955 | 151459
9 | 33:39.35 | 3:16.60 | 151460 | 166219


Range status and errors

Selected range

Filename H:\MUSIC\Deep Purple\1974. Deep Purple - Stormbringer (Warner 20P2-2609, Japan)\Deep Purple - Stormbringer.wav

Peak level 99.8 %
Extraction speed 5.2 X
Range quality 100.0 %
Test CRC E5674853
Copy CRC E5674853
Copy OK

No errors occurred


AccurateRip summary

Track 1 accurately ripped (confidence 3) [9A2BBF8A] (AR v1)
Track 2 accurately ripped (confidence 3) [74B66B62] (AR v1)
Track 3 accurately ripped (confidence 3) [54049FAF] (AR v1)
Track 4 accurately ripped (confidence 3) [1C34F7BF] (AR v1)
Track 5 accurately ripped (confidence 3) [AA6F369E] (AR v1)
Track 6 accurately ripped (confidence 3) [4660AF9A] (AR v1)
Track 7 accurately ripped (confidence 3) [51CBD5A7] (AR v1)
Track 8 accurately ripped (confidence 3) [ABB65000] (AR v1)
Track 9 accurately ripped (confidence 3) [6EAA0639] (AR v1)

All tracks accurately ripped

End of status report

–– CUETools DB Plugin V2.1.3

[CTDB TOCID: 4YzdqHiI7RHDwdUPX4T99mASqTE-] found, Submit result: 4YzdqHiI7RHDwdUPX4T99mASqTE- has been confirmed
[7e89a5c9] (3/3) Accurately ripped


==== Log checksum 272A26C9B58A59C6BA6879238CF44E7E37503AA81D29E1F777350E3D22D6F75A ====


[CUETools log; Date: 01.02.2014 22:25:11; Version: 2.1.2a]
[CTDB TOCID: 4YzdqHiI7RHDwdUPX4T99mASqTE-] found.
[ CTDBID ] Status
[7e89a5c9] (4/4) Accurately ripped
[AccurateRip ID: 000d1a61-005f86a3-7808a809] found.
Track [ CRC ] Status
01 [9a2bbf8a] (3/3) Accurately ripped
02 [74b66b62] (3/3) Accurately ripped
03 [54049faf] (3/3) Accurately ripped
04 [1c34f7bf] (3/3) Accurately ripped
05 [aa6f369e] (3/3) Accurately ripped
06 [4660af9a] (3/3) Accurately ripped
07 [51cbd5a7] (3/3) Accurately ripped
08 [abb65000] (3/3) Accurately ripped
09 [6eaa0639] (3/3) Accurately ripped

Track Peak [ CRC32 ] [W/O NULL] [ LOG ]
– 99,8 [E5674853] [15A0679A] CRC32
01 91,1 [B8BB6AED] [83B308C7]
02 89,8 [0B9BC402] [76D77043]
03 90,1 [8F3DD813] [A102357B]
04 84,7 [F957477C] [F69151F1]
05 92,2 [323E27AA] [14DA202C]
06 99,8 [3DC12370] [071D80C1]
07 87,9 [56825CAF] [E2DE4195]
08 97,2 [96027C8F] [CEE16FF4]
09 99,8 [20C38AB8] [7FAAB46D]


Deep Purple: Japanese Early Pressing CDs Collection (1968-1975)

Tracklist CD10 - 1975. Come Taste The Band (1989, Warner Bros., Japan, 20P2-2610) [Repost]:

01. Comin' Home - 3:56
02. Lady Luck - 2:48
03. Gettin' Tighter - 3:38
04. Dealer - 3:52
05. I Need Love - 4:23
06. Drifter - 4:04
07. Love Child - 3:10
08. a. 'This Time Around' b. Owed To 'G' - 6:12
09. You Keep On Moving - 5:20

Exact Audio Copy V1.0 beta 4 from 7. December 2014

EAC extraction logfile from 9. January 2015, 23:20

Deep Purple / Come Taste The Band (1989, 20P2-2610)

Used drive : ATAPI iHAS124 B Adapter: 1 ID: 0

Read mode : Secure
Utilize accurate stream : Yes
Defeat audio cache : Yes
Make use of C2 pointers : No

Read offset correction : 6
Overread into Lead-In and Lead-Out : No
Fill up missing offset samples with silence : Yes
Delete leading and trailing silent blocks : No
Null samples used in CRC calculations : Yes
Used interface : Installed external ASPI interface

Used output format : User Defined Encoder
Selected bitrate : 128 kBit/s
Quality : High
Add ID3 tag : Yes
Command line compressor : C:\Program Files (x86)\Exact Audio Copy\Flac\flac.exe
Additional command line options : -V -8 -T "Date=%year%" -T "Genre=%genre%" %source%


TOC of the extracted CD

Track | Start | Length | Start sector | End sector
––––––––––––––––––––––––––––-
1 | 0:00.00 | 3:56.10 | 0 | 17709
2 | 3:56.10 | 2:47.52 | 17710 | 30286
3 | 6:43.62 | 3:38.33 | 30287 | 46669
4 | 10:22.20 | 3:51.40 | 46670 | 64034
5 | 14:13.60 | 4:22.60 | 64035 | 83744
6 | 18:36.45 | 4:04.10 | 83745 | 102054
7 | 22:40.55 | 3:09.55 | 102055 | 116284
8 | 25:50.35 | 6:12.37 | 116285 | 144221
9 | 32:02.72 | 5:20.08 | 144222 | 168229


Range status and errors

Selected range

Filename G:\CD\Deep Purple - Come Taste The Band.wav

Peak level 100.0 %
Extraction speed 5.1 X
Range quality 100.0 %
Test CRC F97D7299
Copy CRC F97D7299
Copy OK

No errors occurred


AccurateRip summary

Track 1 cannot be verified as accurate (confidence 8) [8DE45A97], AccurateRip returned [55171CF0] (AR v2)
Track 2 cannot be verified as accurate (confidence 8) [2C595955], AccurateRip returned [637A15BD] (AR v2)
Track 3 cannot be verified as accurate (confidence 8) [860285DA], AccurateRip returned [E5ECAEF0] (AR v2)
Track 4 cannot be verified as accurate (confidence 8) [CE924F2F], AccurateRip returned [5B212E12] (AR v2)
Track 5 cannot be verified as accurate (confidence 8) [226D3C54], AccurateRip returned [EFD6A3B3] (AR v2)
Track 6 cannot be verified as accurate (confidence 8) [11D6E4FC], AccurateRip returned [5B0E7FBD] (AR v2)
Track 7 cannot be verified as accurate (confidence 8) [793BC9B6], AccurateRip returned [17998F17] (AR v2)
Track 8 cannot be verified as accurate (confidence 8) [2F215086], AccurateRip returned [5E2BB8F7] (AR v2)
Track 9 cannot be verified as accurate (confidence 8) [E80921E9], AccurateRip returned [3422AB99] (AR v2)

No tracks could be verified as accurate
You may have a different pressing from the one(s) in the database

End of status report

–– CUETools DB Plugin V2.1.4

[CTDB TOCID: Es4ignWdKB79sXnd9VzoCkroH4Q-] found
Submit result: Es4ignWdKB79sXnd9VzoCkroH4Q- has been confirmed
Track | CTDB Status
1 | (3/3) Accurately ripped
2 | (3/3) Accurately ripped
3 | (3/3) Accurately ripped
4 | (3/3) Accurately ripped
5 | (3/3) Accurately ripped
6 | (3/3) Accurately ripped
7 | (3/3) Accurately ripped
8 | (3/3) Accurately ripped
9 | (3/3) Accurately ripped


==== Log checksum B24EF5424C5D2635BB20C1DED62E19348E80A09D3A43EA93483CA3C8F0B3ACEC ====


[CUETools log; Date: 31.01.2015 21:02:11; Version: 2.1.4]
[CTDB TOCID: Es4ignWdKB79sXnd9VzoCkroH4Q-] found.
Track | CTDB Status
1 | (4/4) Accurately ripped
2 | (4/4) Accurately ripped
3 | (4/4) Accurately ripped
4 | (4/4) Accurately ripped
5 | (4/4) Accurately ripped
6 | (4/4) Accurately ripped
7 | (4/4) Accurately ripped
8 | (4/4) Accurately ripped
9 | (4/4) Accurately ripped
[AccurateRip ID: 000bcc77-0057e63a-6a08c309] found.
Track [ CRC | V2 ] Status
01 [69f92da6|8de45a97] (00+00/14) No match
02 [732b8851|2c595955] (00+00/14) No match
03 [b67d8987|860285da] (00+00/14) No match
04 [31b8b4cf|ce924f2f] (00+00/14) No match
05 [8cf60741|226d3c54] (00+00/14) No match
06 [3ea0dfb1|11d6e4fc] (00+00/14) No match
07 [b0914216|793bc9b6] (00+00/14) No match
08 [020228c7|2f215086] (00+00/15) No match
09 [ca79201e|e80921e9] (00+00/14) No match
Offsetted by -155:
01 [00c59878] (06/14) Accurately ripped
02 [87ebf9c4] (06/14) Accurately ripped
03 [e951178d] (06/14) Accurately ripped
04 [8f1c175b] (06/14) Accurately ripped
05 [23a3d40e] (06/14) Accurately ripped
06 [55d69245] (06/14) Accurately ripped
07 [286e9b2e] (06/14) Accurately ripped
08 [e418b89f] (07/15) Accurately ripped
09 [d3817e4b] (06/14) Accurately ripped

Track Peak [ CRC32 ] [W/O NULL] [ LOG ]
– 100,0 [F97D7299] [45BE870B] CRC32
01 95,3 [7A418CA6] [1E5B5000]
02 100,0 [F64C6336] [E6ED4974]
03 99,9 [69D045F8] [463610DC]
04 99,6 [452E1281] [501E441D]
05 97,4 [80A72359] [A21277DF]
06 100,0 [41B0E8B3] [CF58C8B9]
07 76,5 [0CAB0191] [06815F67]
08 92,0 [F98E9CCB] [CDBBAFE6]
09 88,1 [2103307F] [D145E769]


All thanks go to the original releasers

Deep Purple in my Blog

Download Deep Purple: Japanese Early Pressing CDs Collection (1968-1975):