Tags
Language
Tags

Champion Jack Dupree - New Orleans Barrelhouse Boogie [Recorded 1940-1941] (1993)

Posted By: gribovar
Champion Jack Dupree - New Orleans Barrelhouse Boogie [Recorded 1940-1941] (1993)

Champion Jack Dupree - New Orleans Barrelhouse Boogie [Recorded 1940-1941] (1993)
EAC Rip | FLAC (tracks+.cue+log) - 193 MB | MP3 CBR 320 kbps (LAME 3.93) - 161 MB | Covers - 25 MB
Genre: Blues, New Orleans Blues, Piano Blues | RAR 3% Rec. | Label: Columbia/Legacy (CK 52834)

The New Orleans barrelhouse boogie piano specialist's earliest sides for OKeh, dating from 1940-1941 and in a few cases sporting some fairly groundbreaking electric guitar runs by Jesse Ellery. Dupree rocks the house like it's a decade later on two takes of "Cabbage Greens" and "Dupree Shake Dance," while his drug-oriented "Junker Blues" was later cleaned up a bit by a chubby newcomer named Fats Domino for his debut hit 78 "The Fat Man."
Tracklist:
01. Gamblin' Man Blues
02. Warehouse Man Blues
03. Chain Gang Blues
04. New Low Down Dog
05. Black Woman Swing
06. Gabbage Greens No. 1
07. Gabbage Greens No. 2
08. Angola Blues
09. My Cabin Inn
10. Bad Health Blues
11. That's Allright
12. Gibing Blues
13. Dupree Shake Dance
14. My Baby's Gone
15. Weed Head Woman
16. Junker's Blues
17. Oh, Red
18. All Alone Blues
19. Big Time Mama
20. Shady Lane
21. Hurry Down Sunshine
22. Jackie P. Blues
23. Heavy Heart Blues
24. Morning Tea
25. Black Cow Blues

Total time: 01:08:21

Exact Audio Copy V0.99 prebeta 4 from 23. January 2008

EAC extraction logfile from 10. July 2009, 0:44

Champion Jack Dupree / New Orleans Barrelhouse Boogie

Used drive : PLEXTOR CD-R PX-230A Adapter: 1 ID: 1

Read mode : Secure
Utilize accurate stream : Yes
Defeat audio cache : Yes
Make use of C2 pointers : No

Read offset correction : 738
Overread into Lead-In and Lead-Out : No
Fill up missing offset samples with silence : Yes
Delete leading and trailing silent blocks : No
Null samples used in CRC calculations : Yes
Used interface : Installed external ASPI interface
Gap handling : Appended to previous track

Used output format : User Defined Encoder
Selected bitrate : 1024 kBit/s
Quality : High
Add ID3 tag : No
Command line compressor : C:\Program Files\Exact Audio Copy\FLAC\FLAC.EXE
Additional command line options : -6 -V -T "ARTIST=%a" -T "TITLE=%t" -T "ALBUM=%g" -T "DATE=%y" -T "TRACKNUMBER=%n" -T "GENRE=%m" -T "COMMENT=%e" %s -o %d


TOC of the extracted CD

Track | Start | Length | Start sector | End sector
––––––––––––––––––––––––––––-
1 | 0:00.00 | 2:48.20 | 0 | 12619
2 | 2:48.20 | 2:49.15 | 12620 | 25309
3 | 5:37.35 | 2:31.62 | 25310 | 36696
4 | 8:09.22 | 2:59.65 | 36697 | 50186
5 | 11:09.12 | 2:47.73 | 50187 | 62784
6 | 13:57.10 | 2:59.25 | 62785 | 76234
7 | 16:56.35 | 2:37.10 | 76235 | 88019
8 | 19:33.45 | 2:54.02 | 88020 | 101071
9 | 22:27.47 | 2:41.38 | 101072 | 113184
10 | 25:09.10 | 2:39.47 | 113185 | 125156
11 | 27:48.57 | 2:33.68 | 125157 | 136699
12 | 30:22.50 | 2:48.32 | 136700 | 149331
13 | 33:11.07 | 2:42.73 | 149332 | 161554
14 | 35:54.05 | 2:32.27 | 161555 | 172981
15 | 38:26.32 | 2:59.00 | 172982 | 186406
16 | 41:25.32 | 2:43.00 | 186407 | 198631
17 | 44:08.32 | 2:54.00 | 198632 | 211681
18 | 47:02.32 | 2:44.28 | 211682 | 224009
19 | 49:46.60 | 2:38.00 | 224010 | 235859
20 | 52:24.60 | 2:44.47 | 235860 | 248206
21 | 55:09.32 | 2:38.30 | 248207 | 260086
22 | 57:47.62 | 2:43.53 | 260087 | 272364
23 | 60:31.40 | 2:34.42 | 272365 | 283956
24 | 63:06.07 | 2:45.13 | 283957 | 296344
25 | 65:51.20 | 2:29.55 | 296345 | 307574


Track 1

Filename J:\Rips\01 - Gamblin' Man Blues.wav

Pre-gap length 0:00:02.00

Peak level 99.2 %
Track quality 100.0 %
Test CRC 850E60D1
Copy CRC 850E60D1
Cannot be verified as accurate (confidence 1) [FE6D9A46], AccurateRip returned [5B7DFE86]
Copy OK

Track 2

Filename J:\Rips\02 - Warehouse Man Blues.wav

Pre-gap length 0:00:01.52

Peak level 81.7 %
Track quality 100.0 %
Test CRC 17547468
Copy CRC 17547468
Cannot be verified as accurate (confidence 1) [CE57BEBB], AccurateRip returned [270187FF]
Copy OK

Track 3

Filename J:\Rips\03 - Chain Gang Blues.wav

Pre-gap length 0:00:01.43

Peak level 93.6 %
Track quality 100.0 %
Test CRC 96A96F58
Copy CRC 96A96F58
Cannot be verified as accurate (confidence 1) [8085EAB8], AccurateRip returned [DAF1EAB8]
Copy OK

Track 4

Filename J:\Rips\04 - New Low Down Dog.wav

Pre-gap length 0:00:01.52

Peak level 90.0 %
Track quality 100.0 %
Test CRC 3B86774A
Copy CRC 3B86774A
Cannot be verified as accurate (confidence 1) [2A22F6C9], AccurateRip returned [EEF8F168]
Copy OK

Track 5

Filename J:\Rips\05 - Black Woman Swing.wav

Pre-gap length 0:00:01.53

Peak level 76.7 %
Track quality 100.0 %
Test CRC 4D839CCD
Copy CRC 4D839CCD
Cannot be verified as accurate (confidence 1) [28C47ADD], AccurateRip returned [975AC05E]
Copy OK

Track 6

Filename J:\Rips\06 - Gabbage Greens No. 1.wav

Pre-gap length 0:00:01.39

Peak level 100.0 %
Track quality 99.9 %
Test CRC F3FC9148
Copy CRC F3FC9148
Cannot be verified as accurate (confidence 1) [A479539F], AccurateRip returned [E6833083]
Copy OK

Track 7

Filename J:\Rips\07 - Gabbage Greens No. 2.wav

Pre-gap length 0:00:01.50

Peak level 86.2 %
Track quality 100.0 %
Test CRC 99497363
Copy CRC 99497363
Cannot be verified as accurate (confidence 1) [7E86BD18], AccurateRip returned [6FD373F6]
Copy OK

Track 8

Filename J:\Rips\08 - Angola Blues.wav

Pre-gap length 0:00:01.73

Peak level 81.4 %
Track quality 99.9 %
Test CRC C951047C
Copy CRC C951047C
Cannot be verified as accurate (confidence 1) [354CF250], AccurateRip returned [75340389]
Copy OK

Track 9

Filename J:\Rips\09 - My Cabin Inn.wav

Pre-gap length 0:00:01.39

Peak level 71.0 %
Track quality 100.0 %
Test CRC C92B2A5A
Copy CRC C92B2A5A
Cannot be verified as accurate (confidence 1) [A98312A7], AccurateRip returned [610B789E]
Copy OK

Track 10

Filename J:\Rips\10 - Bad Health Blues.wav

Pre-gap length 0:00:01.45

Peak level 71.1 %
Track quality 100.0 %
Test CRC A9A57C9F
Copy CRC A9A57C9F
Cannot be verified as accurate (confidence 1) [69792FD9], AccurateRip returned [F4DB5082]
Copy OK

Track 11

Filename J:\Rips\11 - That's Allright.wav

Pre-gap length 0:00:01.61

Peak level 60.3 %
Track quality 100.0 %
Test CRC AE21FCF2
Copy CRC AE21FCF2
Cannot be verified as accurate (confidence 1) [372A3875], AccurateRip returned [E9793B78]
Copy OK

Track 12

Filename J:\Rips\12 - Gibing Blues.wav

Pre-gap length 0:00:01.17

Peak level 64.1 %
Track quality 100.0 %
Test CRC A10A3B92
Copy CRC A10A3B92
Cannot be verified as accurate (confidence 1) [E4C2D582], AccurateRip returned [CC379AF2]
Copy OK

Track 13

Filename J:\Rips\13 - Dupree Shake Dance.wav

Pre-gap length 0:00:01.33

Peak level 65.0 %
Track quality 100.0 %
Test CRC 41729B40
Copy CRC 41729B40
Cannot be verified as accurate (confidence 1) [C5923CDB], AccurateRip returned [0A350C33]
Copy OK

Track 14

Filename J:\Rips\14 - My Baby's Gone.wav

Pre-gap length 0:00:01.28

Peak level 72.7 %
Track quality 100.0 %
Test CRC 3B239ED2
Copy CRC 3B239ED2
Cannot be verified as accurate (confidence 1) [3694A5F1], AccurateRip returned [5EDF5A9D]
Copy OK

Track 15

Filename J:\Rips\15 - Weed Head Woman.wav

Pre-gap length 0:00:01.50

Peak level 77.9 %
Track quality 99.9 %
Test CRC 93DB3F04
Copy CRC 93DB3F04
Cannot be verified as accurate (confidence 1) [FEE2A67C], AccurateRip returned [E795AD0F]
Copy OK

Track 16

Filename J:\Rips\16 - Junker's Blues.wav

Pre-gap length 0:00:01.64

Peak level 76.4 %
Track quality 100.0 %
Test CRC 1ACDC56E
Copy CRC 1ACDC56E
Cannot be verified as accurate (confidence 1) [DC48C013], AccurateRip returned [AD537E53]
Copy OK

Track 17

Filename J:\Rips\17 - Oh, Red.wav

Pre-gap length 0:00:01.37

Peak level 91.7 %
Track quality 99.9 %
Test CRC AF4B4F33
Copy CRC AF4B4F33
Cannot be verified as accurate (confidence 1) [46B5C3E7], AccurateRip returned [24034D2F]
Copy OK

Track 18

Filename J:\Rips\18 - All Alone Blues.wav

Pre-gap length 0:00:01.37

Peak level 59.6 %
Track quality 99.9 %
Test CRC 410D0252
Copy CRC 410D0252
Cannot be verified as accurate (confidence 1) [90138BAC], AccurateRip returned [DBC299DF]
Copy OK

Track 19

Filename J:\Rips\19 - Big Time Mama.wav

Pre-gap length 0:00:01.40

Peak level 76.0 %
Track quality 100.0 %
Test CRC D68B8A24
Copy CRC D68B8A24
Cannot be verified as accurate (confidence 1) [128D8BD0], AccurateRip returned [12ABF495]
Copy OK

Track 20

Filename J:\Rips\20 - Shady Lane.wav

Pre-gap length 0:00:01.36

Peak level 95.7 %
Track quality 100.0 %
Test CRC 17A4BB06
Copy CRC 17A4BB06
Cannot be verified as accurate (confidence 1) [9C8E78FE], AccurateRip returned [946A6E7C]
Copy OK

Track 21

Filename J:\Rips\21 - Hurry Down Sunshine.wav

Pre-gap length 0:00:01.53

Peak level 89.8 %
Track quality 99.9 %
Test CRC 20C9945D
Copy CRC 20C9945D
Cannot be verified as accurate (confidence 1) [CF198169], AccurateRip returned [4A63891D]
Copy OK

Track 22

Filename J:\Rips\22 - Jackie P. Blues.wav

Pre-gap length 0:00:01.37

Peak level 81.8 %
Track quality 99.9 %
Test CRC 43FFE778
Copy CRC 43FFE778
Cannot be verified as accurate (confidence 1) [A706FB69], AccurateRip returned [B7699AD4]
Copy OK

Track 23

Filename J:\Rips\23 - Heavy Heart Blues.wav

Pre-gap length 0:00:01.35

Peak level 83.5 %
Track quality 100.0 %
Test CRC 49E8A6EB
Copy CRC 49E8A6EB
Cannot be verified as accurate (confidence 1) [C2AB911E], AccurateRip returned [A701911E]
Copy OK

Track 24

Filename J:\Rips\24 - Morning Tea.wav

Pre-gap length 0:00:01.39

Peak level 49.5 %
Track quality 100.0 %
Test CRC 407D3284
Copy CRC 407D3284
Cannot be verified as accurate (confidence 1) [41D4B79A], AccurateRip returned [271DB79A]
Copy OK

Track 25

Filename J:\Rips\25 - Black Cow Blues.wav

Pre-gap length 0:00:01.42

Peak level 92.9 %
Track quality 100.0 %
Test CRC 760DE7A6
Copy CRC 760DE7A6
Cannot be verified as accurate (confidence 1) [B2C3B3CA], AccurateRip returned [EB029DFF]
Copy OK


No tracks could be verified as accurate
You may have a different pressing from the one(s) in the database

No errors occurred

End of status report

[CUETools log; Date: 25.11.2021 14:05:43; Version: 2.1.4]
[CTDB TOCID: JH8eaeYfDKZ.qO.KcBiJSJDrdRI-] found.
Track | CTDB Status
1 | (16/17) Accurately ripped
2 | (17/17) Accurately ripped
3 | (17/17) Accurately ripped
4 | (16/17) Accurately ripped
5 | (17/17) Accurately ripped
6 | (17/17) Accurately ripped
7 | (17/17) Accurately ripped
8 | (17/17) Accurately ripped
9 | (17/17) Accurately ripped
10 | (17/17) Accurately ripped
11 | (17/17) Accurately ripped
12 | (17/17) Accurately ripped
13 | (17/17) Accurately ripped
14 | (17/17) Accurately ripped
15 | (17/17) Accurately ripped
16 | (17/17) Accurately ripped
17 | (16/17) Accurately ripped
18 | (17/17) Accurately ripped
19 | (16/17) Accurately ripped
20 | (17/17) Accurately ripped
21 | (17/17) Accurately ripped
22 | (17/17) Accurately ripped
23 | (17/17) Accurately ripped
24 | (17/17) Accurately ripped
25 | (17/17) Accurately ripped
[AccurateRip ID: 003d9964-0452c003-7f100519] found.
Track [ CRC | V2 ] Status
01 [fe6d9a46|362abdae] (0+0/9) No match
02 [ce57bebb|943a104c] (0+0/9) No match
03 [8085eab8|da3d9f7b] (0+0/9) No match
04 [2a22f6c9|111c7045] (0+0/7) No match
05 [28c47add|5b64cef2] (0+0/9) No match
06 [a479539f|85679ac6] (0+0/9) No match
07 [7e86bd18|d24c3e4d] (0+0/9) No match
08 [354cf250|cb9d1f54] (0+0/9) No match
09 [a98312a7|634d23cb] (0+0/9) No match
10 [69792fd9|8f06559c] (0+0/9) No match
11 [372a3875|80770bb1] (0+0/9) No match
12 [e4c2d582|ed78e673] (0+0/9) No match
13 [c5923cdb|1aaab142] (0+0/9) No match
14 [3694a5f1|e22bb6ec] (0+0/9) No match
15 [fee2a67c|d454e5c9] (0+0/9) No match
16 [dc48c013|1104261e] (0+0/9) No match
17 [46b5c3e7|c2d7ee65] (0+0/9) No match
18 [90138bac|882b9d1d] (0+0/9) No match
19 [128d8bd0|da1b497d] (0+0/9) No match
20 [9c8e78fe|ddaa22f6] (0+0/9) No match
21 [cf198169|f1c6d6f3] (0+0/9) No match
22 [a706fb69|347196a1] (0+0/9) No match
23 [c2ab911e|5071e511] (0+0/9) No match
24 [41d4b79a|146e2543] (0+0/9) No match
25 [b2c3b3ca|1c2d3271] (0+0/9) No match
Offsetted by 371:
01 [5b7dfe86] (3/9) Accurately ripped
02 [270187ff] (3/9) Accurately ripped
03 [daf1eab8] (3/9) Accurately ripped
04 [eef8f168] (3/7) Accurately ripped
05 [975ac05e] (3/9) Accurately ripped
06 [e6833083] (3/9) Accurately ripped
07 [6fd373f6] (3/9) Accurately ripped
08 [75340389] (3/9) Accurately ripped
09 [610b789e] (3/9) Accurately ripped
10 [f4db5082] (3/9) Accurately ripped
11 [e9793b78] (3/9) Accurately ripped
12 [cc379af2] (3/9) Accurately ripped
13 [0a350c33] (3/9) Accurately ripped
14 [5edf5a9d] (3/9) Accurately ripped
15 [e795ad0f] (3/9) Accurately ripped
16 [ad537e53] (3/9) Accurately ripped
17 [24034d2f] (3/9) Accurately ripped
18 [dbc299df] (3/9) Accurately ripped
19 [12abf495] (3/9) Accurately ripped
20 [946a6e7c] (3/9) Accurately ripped
21 [4a63891d] (3/9) Accurately ripped
22 [b7699ad4] (3/9) Accurately ripped
23 [a701911e] (3/9) Accurately ripped
24 [271db79a] (3/9) Accurately ripped
25 [eb029dff] (3/9) Accurately ripped
Offsetted by -605:
01 [d5120286] (0/9) No match (V2 was not tested)
02 [f33bf83f] (0/9) No match (V2 was not tested)
03 [75b1eab8] (0/9) No match (V2 was not tested)
04 [94f7b458] (0/7) No match (V2 was not tested)
05 [e648df6e] (0/9) No match (V2 was not tested)
06 [41103ac3] (0/9) No match (V2 was not tested)
07 [a87073d6] (0/9) No match (V2 was not tested)
08 [76d6e619] (0/9) No match (V2 was not tested)
09 [d9fe590e] (0/9) No match (V2 was not tested)
10 [a1c73a12] (0/9) No match (V2 was not tested)
11 [188840a8] (0/9) No match (V2 was not tested)
12 [1a9601f2] (0/9) No match (V2 was not tested)
13 [d3eb69b3] (0/9) No match (V2 was not tested)
14 [eeaa595d] (0/9) No match (V2 was not tested)
15 [e091db3f] (0/9) No match (V2 was not tested)
16 [63832253] (0/9) No match (V2 was not tested)
17 [03c6d9af] (0/9) No match (V2 was not tested)
18 [197ca20f] (0/9) No match (V2 was not tested)
19 [f4b023e5] (0/9) No match (V2 was not tested)
20 [0439b85c] (0/9) No match (V2 was not tested)
21 [5142f05d] (0/9) No match (V2 was not tested)
22 [334b3e84] (0/9) No match (V2 was not tested)
23 [c661911e] (0/9) No match (V2 was not tested)
24 [baadb79a] (0/9) No match (V2 was not tested)
25 [fb44f44f] (0/9) No match (V2 was not tested)
Offsetted by 182:
01 [0f19dec6] (0/9) No match (V2 was not tested)
02 [33ccd903] (0/9) No match (V2 was not tested)
03 [429deab8] (0/9) No match (V2 was not tested)
04 [5a654b17] (0/7) No match (V2 was not tested)
05 [b12184cf] (0/9) No match (V2 was not tested)
06 [6918bb27] (0/9) No match (V2 was not tested)
07 [85ce2ef4] (0/9) No match (V2 was not tested)
08 [7b4a6032] (0/9) No match (V2 was not tested)
09 [f50e7025] (0/9) No match (V2 was not tested)
10 [269ad59b] (0/9) No match (V2 was not tested)
11 [e0c0134b] (0/9) No match (V2 was not tested)
12 [95191962] (0/9) No match (V2 was not tested)
13 [2fb1ce0b] (0/9) No match (V2 was not tested)
14 [4f2d3889] (0/9) No match (V2 was not tested)
15 [28963f72] (0/9) No match (V2 was not tested)
16 [25da1893] (0/9) No match (V2 was not tested)
17 [794fb9f7] (0/9) No match (V2 was not tested)
18 [ea5619e2] (0/9) No match (V2 was not tested)
19 [f0ccc40a] (0/9) No match (V2 was not tested)
20 [c408de1a] (0/9) No match (V2 was not tested)
21 [b4a34191] (0/9) No match (V2 was not tested)
22 [49a1a08f] (0/9) No match (V2 was not tested)
23 [7ff7911e] (0/9) No match (V2 was not tested)
24 [86d6b79a] (0/9) No match (V2 was not tested)
25 [dcd8e7e4] (0/9) No match (V2 was not tested)

Track Peak [ CRC32 ] [W/O NULL] [ LOG ]
– 100,0 [9AF23717] [3D9EB84E]
01 99,2 [850E60D1] [68587DD7] CRC32
02 81,7 [17547468] [F5899A35] CRC32
03 93,6 [96A96F58] [35FF1717] CRC32
04 90,0 [3B86774A] [91B6CCE1] CRC32
05 76,7 [4D839CCD] [CFFF6243] CRC32
06 100,0 [F3FC9148] [42541356] CRC32
07 86,2 [99497363] [3E0E3767] CRC32
08 81,4 [C951047C] [5608746D] CRC32
09 71,0 [C92B2A5A] [72B0D7F8] CRC32
10 71,1 [A9A57C9F] [3F6B7E00] CRC32
11 60,3 [AE21FCF2] [07952287] CRC32
12 64,1 [A10A3B92] [575D3759] CRC32
13 65,0 [41729B40] [A9E5F4B2] CRC32
14 72,7 [3B239ED2] [75A195CC] CRC32
15 77,9 [93DB3F04] [0FDD6A8D] CRC32
16 76,4 [1ACDC56E] [5578A254] CRC32
17 91,7 [AF4B4F33] [077A4A09] CRC32
18 59,6 [410D0252] [500C343D] CRC32
19 76,0 [D68B8A24] [9887284E] CRC32
20 95,7 [17A4BB06] [E5075628] CRC32
21 89,8 [20C9945D] [E78632EB] CRC32
22 81,8 [43FFE778] [C2717242] CRC32
23 83,5 [49E8A6EB] [D320B917] CRC32
24 49,5 [407D3284] [2A275B29] CRC32
25 92,9 [760DE7A6] [A161E7C4] CRC32

Thanks to рмх222

See also:
Champion Jack Dupree - From Ne...Band (1967) [2CD Reissue 2004]
Champion Jack Dupree - The Leg...n Jack Dupree 1980-1988 (1988)
Champion Jack Dupree - Back Home In New Orleans (1990)
Champion Jack Dupree - Blues For Everybody [Recorded 1951-1955] (1990)
Champion Jack Dupree - Forever And Ever (1991)