Tags
Language
Tags
April 2024
Su Mo Tu We Th Fr Sa
31 1 2 3 4 5 6
7 8 9 10 11 12 13
14 15 16 17 18 19 20
21 22 23 24 25 26 27
28 29 30 1 2 3 4

Bobby McFerrin - Simple Pleasures (1988)

Posted By: popsakov
Bobby McFerrin - Simple Pleasures (1988)

Bobby McFerrin - Simple Pleasures (1988)
EAC Rip | WV (Img) + Cue + Log ~ 208 Mb | MP3 CBR320 ~ 114 Mb
Scans Included (PNG, 400 dpi) | RAR 5% Recovery
Vocal, A Cappella, Jazz | EMI-Manhattan #CDP-7-48059-2 / DIDX 2124

Simple Pleasures is the fourth studio album by American singer and musician Bobby McFerrin. It was his commercial breakthrough album, containing the hit single "Don't Worry, Be Happy," also featured in the film Cocktail. Simple Pleasures has gone triple platinum, with "Don't Worry, Be Happy" winning the 1988 Grammy Awards for Song of the Year, Record of the Year and Best Pop Vocal.
~ Wiki

This CD will always be remembered for including Bobby McFerrin's surprise hit "Don't Worry, Be Happy." Actually, overall, this album is not quite up to the level of his previous two, for instead of taking unaccompanied vocals, the remarkable singer overdubbed his voice many times, which reduces the miraculous nature of his talents. However, McFerrin's renditions of "Drive My Car," "Drive," and "Sunshine of Your Love" (the program is quite diverse), plus the catchy "Don't Worry," are generally unique and worth hearing.
~ Scott Yanow, All Music

***************

Bobby McFerrin - Simple Pleasures (1988)

Track List:

01. Don't Worry, Be Happy [0:04:54.30]
02. All I Want [0:02:56.22]
03. Drive My Car [0:02:44.15]
04. Simple Pleasures [0:02:08.60]
05. Good Lovin' [0:02:58.58]
06. Come to Me [0:03:38.00]
07. Suzie Q [0:02:50.67]
08. Drive [0:03:58.30]
09. Them Changes [0:03:55.20]
10. Sunshine of Your Love [0:03:39.70]

Exact Audio Copy V1.3 from 2. September 2016

EAC extraction logfile from 15. October 2016, 10:54

Bobby McFerrin / Simple Pleasures

Used drive : HL-DT-STDVDRAM GH24NSC0 Adapter: 1 ID: 0

Read mode : Secure
Utilize accurate stream : Yes
Defeat audio cache : Yes
Make use of C2 pointers : No

Read offset correction : 6
Overread into Lead-In and Lead-Out : No
Fill up missing offset samples with silence : Yes
Delete leading and trailing silent blocks : No
Null samples used in CRC calculations : Yes
Used interface : Native Win32 interface for Win NT & 2000

Used output format : Internal WAV Routines
Sample format : 44.100 Hz; 16 Bit; Stereo


TOC of the extracted CD

Track | Start | Length | Start sector | End sector
––––––––––––––––––––––––––––-
1 | 0:00.00 | 4:54.30 | 0 | 22079
2 | 4:54.30 | 2:56.22 | 22080 | 35301
3 | 7:50.52 | 2:44.15 | 35302 | 47616
4 | 10:34.67 | 2:08.60 | 47617 | 57276
5 | 12:43.52 | 2:58.58 | 57277 | 70684
6 | 15:42.35 | 3:38.00 | 70685 | 87034
7 | 19:20.35 | 2:50.67 | 87035 | 99851
8 | 22:11.27 | 3:58.30 | 99852 | 117731
9 | 26:09.57 | 3:55.20 | 117732 | 135376
10 | 30:05.02 | 3:39.70 | 135377 | 151871


Range status and errors

Selected range

Filename C:\Music CD\Bobby McFerrin - Simple Pleasures.wav

Peak level 92.0 %
Extraction speed 1.7 X
Range quality 100.0 %
Test CRC D41B1258
Copy CRC D41B1258
Copy OK

No errors occurred


AccurateRip summary

Track 1 accurately ripped (confidence 96) [18D85BA8] (AR v2)
Track 2 accurately ripped (confidence 97) [F1363C1C] (AR v2)
Track 3 accurately ripped (confidence 98) [C030630F] (AR v2)
Track 4 accurately ripped (confidence 98) [00A239BF] (AR v2)
Track 5 accurately ripped (confidence 99) [AEC9A349] (AR v2)
Track 6 accurately ripped (confidence 98) [55CDE138] (AR v2)
Track 7 accurately ripped (confidence 97) [EE234944] (AR v2)
Track 8 accurately ripped (confidence 96) [1319DF3C] (AR v2)
Track 9 accurately ripped (confidence 95) [3323C335] (AR v2)
Track 10 accurately ripped (confidence 96) [909B7D27] (AR v2)

All tracks accurately ripped

End of status report

–– CUETools DB Plugin V2.1.6

[CTDB TOCID: xZe9SP8fs6jnAs.oe7dzJX4fbSQ-] found
Submit result: xZe9SP8fs6jnAs.oe7dzJX4fbSQ- has been confirmed
Track | CTDB Status
1 | (107/115) Accurately ripped
2 | (105/115) Accurately ripped
3 | (106/115) Accurately ripped
4 | (106/115) Accurately ripped
5 | (105/115) Accurately ripped
6 | (106/115) Accurately ripped
7 | (107/115) Accurately ripped
8 | (107/115) Accurately ripped
9 | (106/115) Accurately ripped
10 | (107/115) Accurately ripped


==== Log checksum C59B0074116177849AA12260EA73BE1AA83C96082346E386F9DD2E9BF6231D21 ====

foobar2000 1.2.6 / Dynamic Range Meter 1.1.1
log date: 2017-03-24 02:10:04

––––––––––––––––––––––––––––––––––––––––
Analyzed: Bobby McFerrin / Simple Pleasures
––––––––––––––––––––––––––––––––––––––––

DR Peak RMS Duration Track
––––––––––––––––––––––––––––––––––––––––
DR17 -0.75 dB -22.22 dB 4:54 01-Don't Worry, Be Happy
DR20 -0.72 dB -22.80 dB 2:56 02-All I Want
DR21 -0.72 dB -23.80 dB 2:44 03-Drive My Car
DR21 -0.72 dB -25.32 dB 2:09 04-Simple Pleasures
DR15 -1.54 dB -19.22 dB 2:59 05-Good Lovin'
DR21 -0.72 dB -24.19 dB 3:38 06-Come to Me
DR16 -0.76 dB -21.07 dB 2:51 07-Suzie Q
DR17 -0.74 dB -20.53 dB 3:58 08-Drive
DR17 -0.72 dB -20.68 dB 3:55 09-Them Changes
DR15 -1.87 dB -19.76 dB 3:40 10-Sunshine of Your Love
––––––––––––––––––––––––––––––––––––––––

Number of tracks: 10
Official DR value: DR18

Samplerate: 44100 Hz
Channels: 2
Bits per sample: 16
Bitrate: 685 kbps
Codec: WavPack
================================================================================

[CUETools log; Date: 24.03.2017 2:10:10; Version: 2.1.5]
[CTDB TOCID: xZe9SP8fs6jnAs.oe7dzJX4fbSQ-] found.
Track | CTDB Status
1 | (131/139) Accurately ripped
2 | (129/139) Accurately ripped
3 | (130/139) Accurately ripped
4 | (130/139) Accurately ripped
5 | (129/139) Accurately ripped
6 | (130/139) Accurately ripped
7 | (131/139) Accurately ripped
8 | (131/139) Accurately ripped
9 | (130/139) Accurately ripped
10 | (131/139) Accurately ripped
[AccurateRip ID: 000c95fd-0063d6c1-8407e80a] found.
Track [ CRC | V2 ] Status
01 [7ef7a821|18d85ba8] (108+103/241) Accurately ripped
02 [5563c621|f1363c1c] (108+104/242) Accurately ripped
03 [adcecd87|c030630f] (109+105/244) Accurately ripped
04 [4593f894|00a239bf] (108+105/242) Accurately ripped
05 [a21b2e56|aec9a349] (107+106/244) Accurately ripped
06 [43d19f79|55cde138] (106+105/242) Accurately ripped
07 [1985abc5|ee234944] (106+104/240) Accurately ripped
08 [fd0aba5b|1319df3c] (107+103/240) Accurately ripped
09 [58f28a9e|3323c335] (108+102/243) Accurately ripped
10 [a1880e3d|909b7d27] (108+103/242) Accurately ripped
Offsetted by 143:
01 [a260551d] (003/241) Accurately ripped
02 [b5abdccd] (003/242) Accurately ripped
03 [9594bb96] (003/244) Accurately ripped
04 [a38150ce] (003/242) Accurately ripped
05 [256ead22] (003/244) Accurately ripped
06 [ec418e34] (003/242) Accurately ripped
07 [0cbe55d1] (003/240) Accurately ripped
08 [2286078e] (003/240) Accurately ripped
09 [539669b4] (003/243) Accurately ripped
10 [e5b98c0c] (003/242) Accurately ripped
Offsetted by 183:
01 [bc86948b] (002/241) Accurately ripped
02 [8d510c8a] (002/242) Accurately ripped
03 [098e2d76] (002/244) Accurately ripped
04 [63c94ec2] (002/242) Accurately ripped
05 [6e0a4f61] (002/244) Accurately ripped
06 [c5e056fe] (002/242) Accurately ripped
07 [355417c2] (002/240) Accurately ripped
08 [5951b283] (002/240) Accurately ripped
09 [3416ae21] (002/243) Accurately ripped
10 [9602091c] (002/242) Accurately ripped
Offsetted by 197:
01 [f63b868d] (006/241) Accurately ripped
02 [437df093] (006/242) Accurately ripped
03 [c312e1d2] (006/244) Accurately ripped
04 [d1ed7e70] (004/242) Accurately ripped
05 [27a02fe2] (006/244) Accurately ripped
06 [38f1f691] (006/242) Accurately ripped
07 [2c3b5618] (006/240) Accurately ripped
08 [138fdfae] (006/240) Accurately ripped
09 [69a627d5] (006/243) Accurately ripped
10 [f55205b4] (006/242) Accurately ripped

Track Peak [ CRC32 ] [W/O NULL] [ LOG ]
– 92,0 [D41B1258] [FCEAC4F0] CRC32
01 91,7 [06D285B6] [36A238E3]
02 92,0 [8A3ED877] [4DB5EB2C]
03 92,0 [4BFB180A] [12D6CBAD]
04 92,0 [A45533A5] [12D61A15]
05 83,7 [7CD5EE7B] [F2C9B9F1]
06 92,0 [406D4A72] [AE488734]
07 91,6 [6224FADC] [1D4E03DC]
08 91,8 [45A48215] [C45E441F]
09 92,0 [DC1D8C73] [D6A64897]
10 80,6 [9AA7DA5A] [7784712F]

Bobby McFerrin - Simple Pleasures (1988)

Bobby McFerrin - Simple Pleasures (1988)

See also:
Bobby McFerrin - Bobby McFerri...z Best Collection 1000 Series}
Bobby McFerrin - Jazz Masters (1997)

All thanks go to edenika

> Visit my blog <