Please register here if you want to download anything!

If domain in your address bar is different from the list below
PLEASE LEAVE THAT SITE IMMEDIATELY
❗IT'S A DANGEROUS FAKE❗



Spicy Magazines for Men! ;-)

Wilson Pickett - The Wicked Pickett (1967/2012) [Official Digital Download 24/192]

Posted By: HDV
Wilson Pickett - The Wicked Pickett (1967/2012) [Official Digital Download 24/192]

Wilson Pickett - The Wicked Pickett (1967/2012)
FLAC (tracks) 24-bit/192 kHz | Time - 31:47 minutes | 763 MB
Studio Master, Official Digital Download | Artwork: Front cover

This stunning twelve-track collection features Pickett’s gritty soul stylings. With wonderful production and arrangements, Pickett howls classic staples including “Mustang Sally,” “Knock On Wood,” “Sunny” and “Three Time Loser.” “Mustang Sally” is included on Rolling Stone’s “500 Greatest Songs of All Time.” The Wicked Pickett is a diverse listen, sure to please fans with its wide range of endearing ballads and up-tempo dance numbers.

A fabulous album, done when Pickett was in the midst of his best period at Atlantic. It had everything – great songs, wonderful production and arrangements, and a hungry, galvanizing Wilson Pickett hollering, screaming, shouting, and soaring on anything he covered, from ballads to uptempo dance and midtempo wailers. It also has been deleted at present.

Tracklist:

01 - Mustang Sally
02 - New Orleans
03 - Sunny
04 - Everybody Needs Somebody To Love
05 - Ooh Poo Pah Doo
06 - She Ain't Gonna Do Right
07 - Knock On Wood
08 - Time Is On My Side
09 - Up Tight Good Woman
10 - You Left The Water Running
11 - Three Time Loser
12 - Nothing You Can Do

Analyzed: Wilson Pickett / The Wicked Pickett
––––––––––––––––––––––––––––––––––––––––

DR Peak RMS Duration Track
––––––––––––––––––––––––––––––––––––––––
DR12 -1.13 dB -14.39 dB 3:09 01-Mustang Sally
DR12 -1.75 dB -14.96 dB 2:36 02-New Orleans
DR12 -3.11 dB -17.25 dB 3:21 03-Sunny
DR12 -0.91 dB -15.85 dB 2:22 04-Everybody Needs Somebody To Love
DR12 -3.28 dB -17.71 dB 2:44 05-Ooh Poo Pah Doo
DR12 0.00 dB -14.16 dB 2:16 06-She Ain't Gonna Do Right
DR12 -3.32 dB -16.39 dB 2:45 07-Knock On Wood
DR11 -4.05 dB -17.18 dB 2:40 08-Time Is On My Side
DR12 -3.55 dB -18.20 dB 2:34 09-Up Tight Good Woman
DR11 -0.68 dB -13.40 dB 2:39 10-You Left The Water Running
DR12 -2.10 dB -14.98 dB 2:25 11-Three Time Loser
DR10 -0.45 dB -12.88 dB 2:16 12-Nothing You Can Do
––––––––––––––––––––––––––––––––––––––––

Number of tracks: 12
Official DR value: DR12

Samplerate: 192000 Hz
Channels: 2
Bits per sample: 24
Bitrate: 3170 kbps
Codec: FLAC
================================================================================


Thanks to the Original customer!

More of 'Wilson Pickett' in Hi-Res