Please register here if you want to download anything!

If domain in your address bar is different from the list below
PLEASE LEAVE THAT SITE IMMEDIATELY
❗IT'S A DANGEROUS FAKE❗



Spicy Magazines for Men! ;-)

Wilson Pickett - Hey Jude (1969/2012) [Official Digital Download 24bit/192kHz]

Posted By: HDV
Wilson Pickett - Hey Jude (1969/2012) [Official Digital Download 24bit/192kHz]

Wilson Pickett - Hey Jude (1969/2012)
FLAC (tracks) 24 bit/192 kHz | Time - 31:09 minutes | 1,3 GB
Studio Master, Official Digital Download | Artwork: Front cover

With the music scene rapidly evolving, Wilson Pickett delivered a versatile outing with the release of Hey Jude. Produced by the legendary Rick Hall, the work incorporates some of rock’s finest tunes including “Born To Be Wild” and the Lennon & McCartney classic, “Hey Jude.” Displayed with funky arrangements, Pickett is joined by one of Rolling Stone’s “100 Greatest Guitarists of All Time,” Duane Allman. Found here is material penned by greats including Bobby Womack, Raymond Moore, Isaac Hayes and David Porter. Hey Jude remains another accomplishment in an illustrious career.

Wilson Pickett and the Muscle Shoals session crew with whom he cut most of his best work thankfully had the good sense to not try to go psychedelic when the pop charts went all day-glo in the late 1960's, but that's not to say they didn't make an effort to change with the times. On Hey Jude, Pickett and producer Rick Hall decided to throw a couple of recent rock covers into the mix, and while Pickett's version of "Hey Jude" suggests that he isn't entirely sure what it is he's singing about, he still belts it out with his typical level of commitment and builds up to a proper fury at the end; he sounds more comfortable with the neo-biker bombast of "Born To Be Wild", a combination of artist and material that works far better than anyone would have a right to expect. But the most notable change in Pickett's approach for this album was the addition of Duane Allman on guitar; his wirey, blues-accented leads don't overpower the album, but they add a noticeably harder texture to the sound, and that seems to suit Pickett, one of the toughest soul shouters of his time, just fine. Most of the Hey Jude is dominated by hard Southern soul numbers like "A Man and a Half" and "Toe Hold", and Pickett, one of the most dependable performers on the 1960's soul scene, gives a typically con brio performance on all ten tracks, and the sharp report of the horn section and Allman's blistering guitar makes for music just as potent as the wail of the lead singer, which is not an accomplishment to be sneered at.

Tracklist:

01 - Save Me
02 - Hey Jude
03 - Back In Your Arms
04 - Toe Hold
05 - Night Owl
06 - My Own Style Of Loving
07 - A Man And A Half
08 - Sit Down And Talk This Over
09 - Search Your Heart
10 - Born To Be Wild
11 - People Make The World

Analyzed: Wilson Pickett / Hey Jude
––––––––––––––––––––––––––––––––––––––––

DR Peak RMS Duration Track
––––––––––––––––––––––––––––––––––––––––
DR15 -3.11 dB -20.61 dB 2:38 01-Save Me
DR12 -2.16 dB -19.34 dB 4:08 02-Hey Jude
DR13 -1.29 dB -18.22 dB 2:56 03-Back In Your Arms
DR13 -2.81 dB -19.72 dB 2:50 04-Toe Hold
DR11 -1.03 dB -15.15 dB 2:23 05-Night Owl
DR13 -1.90 dB -17.64 dB 2:43 06-My Own Style Of Loving
DR12 -0.71 dB -14.64 dB 2:51 07-A Man And A Half
DR12 -0.07 dB -15.17 dB 2:22 08-Sit Down And Talk This Over
DR13 -2.51 dB -20.35 dB 2:46 09-Search Your Heart
DR13 -1.96 dB -17.46 dB 2:46 10-Born To Be Wild
DR11 -2.36 dB -17.88 dB 2:46 11-People Make The World
––––––––––––––––––––––––––––––––––––––––

Number of tracks: 11
Official DR value: DR12

Samplerate: 192000 Hz
Channels: 2
Bits per sample: 24
Bitrate: 5681 kbps
Codec: FLAC
================================================================================


Thanks to the Original customer!

More of 'Wilson Pickett' in Hi-Res